<?xml version="1.0" standalone="no"?>
<!DOCTYPE svg PUBLIC "-//W3C//DTD SVG 1.1//EN" "http://www.w3.org/Graphics/SVG/1.1/DTD/svg11.dtd" >
<svg xmlns="http://www.w3.org/2000/svg" xmlns:xlink="http://www.w3.org/1999/xlink" version="1.1">
<metadata>
Created by FontForge 20170731 at Mon Nov 13 20:38:23 2017
 By Aleksey,,,
(c) 2017 The Monotype Corporation. All Rights Reserved. 

Hebrew OpenType Layout logic copyright (c) 2003 &#38; 2007, Ralph Hancock &#38; John Hudson. This layout logic for Biblical Hebrew is open source software under the MIT License; see embedded license description for details.
</metadata>
<defs>
<font id="CourierNewPSMT" horiz-adv-x="1229" >
  <font-face 
    font-family="Courier New"
    font-weight="400"
    font-stretch="normal"
    units-per-em="2048"
    panose-1="2 7 3 9 2 2 5 2 4 4"
    ascent="1638"
    descent="-410"
    x-height="866"
    cap-height="1170"
    bbox="-249 -1392 1275 2091"
    underline-thickness="84"
    underline-position="-603"
    unicode-range="U+0020-FFFC"
  />
<missing-glyph 
d="M103 0v1280h1024v-1280h-1024zM135 32h960v1216h-960v-1216z" />
    <glyph glyph-name="uniFB4F" unicode="&#x5d0;&#x200d;&#x5dc;" 
d="M277 895h-105v346q0 48 42 48t42 -48v-262h65l361 -491q263 92 263 219v188h-157q-48 0 -48 42t48 42h241v-288q0 -179 -298 -268l267 -363q11 -16 11 -32q0 -40 -41 -40q-22 0 -38 22z" />
    <glyph glyph-name="uniFDF2" unicode="&#x627;&#x627;&#xfedf;&#xfee0;&#xfbab;" arabic-form="isolated" 
d="M1123 22q0 121 -5.5 252.5t-14.5 260.5q-5 72 -8.5 140t-5.5 127.5t-3 109t-1 83.5l100 166l-3 -155q0 -84 1.5 -160t3.5 -146q2 -54 3.5 -106.5t2 -97.5t1 -81t0.5 -58q0 -293 -71 -335zM695 92q-20 -48 -48 -71q-29 -21 -106 -21q-19 0 -65 11q-22 5 -43 13t-29 15
q-8 6 -14.5 22.5t-11.5 45.5t-10 71.5t-10 100.5l-76 -76q-109 8 -164.5 15.5t-69.5 13.5q-28 12 -28 32q0 50 26 109q27 62 56 88q15 14 72.5 42t169.5 70q-2 23 -5 48t-11 48l72 114q4 -41 7.5 -82.5t6.5 -89.5t6 -104.5t5 -126.5q3 -79 7 -128t7 -69t18 -32.5t33 -17.5
q17 -5 31 -7.5t34 -2.5q51 0 79 16.5t28 50.5q0 55 -18.5 177.5t-68.5 326.5q7 16 15.5 35.5l17 39t17.5 37t18 31.5q17 -113 31 -199t25 -159t19.5 -140.5t14.5 -143.5q5 -35 29.5 -52t78.5 -17q88 0 88 70q0 31 -3 74t-10 100q-3 28 -8.5 56t-14.5 69t-22.5 102t-33.5 156
q14 34 30.5 70.5t36.5 75.5l97 -606q12 -77 12 -132q0 -45 -8.5 -76t-27.5 -49.5t-48.5 -27t-72.5 -8.5q-25 0 -51 5.5t-48 21.5q-49 29 -62 65zM352 330l-8 149q-131 -35 -189 -71t-58 -73q0 -13 83 -24l61.5 -7.5t31.5 -2.5q16 0 34.5 7.5t44.5 21.5zM623 930
q-39 -86 -90 -86q-68 0 -68 92q0 42 9.5 63t19.5 21q13 0 13 -16v-6.5t-1 -10.5q-1 -7 -1.5 -11.5t-0.5 -7.5q0 -28 27 -28q43 0 61 67q7 33 10 49.5t9 16.5q14 0 19 -36q4 -37 37 -37t41 65q7 64 18 64q30 0 30 -109q0 -50 -26 -88q-25 -37 -60 -37q-27 0 -47 35zM602 1110
q-2 26 -7 65.5t-13 71.5l-19 84l50 86l21 -117q8 -38 8 -64q0 -28 -4.5 -49.5t-11 -37t-13.5 -25.5t-11 -14z" />
    <glyph glyph-name="uniFDFC" unicode="&#x631;&#xfbfe;&#xfe8e;&#x644;" arabic-form="isolated" 
d="M451 889q15 47 49 110q39 -53 77 -84q-41 -59 -41 -116q0 -63 22 -302q21 -240 21 -283q0 -126 -32 -178t-123 -89t-223 -37q-201 0 -201 184q0 69 28.5 156.5t42.5 87.5q11 0 11 -11q0 -8 -20 -63q-20 -54 -20 -90q0 -156 144 -156q121 0 209.5 23t111.5 47t23 75
q0 64 -13 200l-36 410q-9 100 -30 116zM881 74h-86q-72 0 -100 15t-43 66.5t-15 132.5q0 51 5 154q4 102 4 153q0 215 -33 315l56 85q29 -96 29 -304q0 -62 -4 -186q-5 -124 -5 -186q0 -147 77 -147h62q47 0 99 26t52 53q0 142 -71 233l46 136q79 -139 79 -293
q0 -82 -44.5 -167.5t-107.5 -85.5zM1071 477l43 136q115 -126 115 -388q0 -198 -90.5 -357t-198.5 -159q-73 0 -116 15l-126 44q-32 11 -32 32q0 22 19 22q10 0 63 -13q54 -12 90 -12q95 0 176.5 63t128.5 168t47 134q0 171 -119 315zM915 19l76 -68l-76 -73l-66 65l-76 -67
l-72 71l74 72l66 -67z" />
    <glyph glyph-name="uniFEF5" unicode="&#xfedf;&#xfe82;" arabic-form="isolated" 
d="M946 1071q-27 -38 -40.5 -92.5t-15.5 -116.5l-5 -244q-8 -112 -66 -253q48 -79 57 -100.5t9 -46.5q0 -71 -23 -144.5t-61 -73.5h-315l31 127q132 31 237 224q-206 372 -449 492l-6 -43l-143 105q26 99 32 174q169 -88 338 -273.5t265 -381.5q22 76 22 133q0 230 -24 499
q31 34 64 105q44 -58 93 -90zM780 302q-73 -136 -130 -179h137q17 0 32.5 16t15.5 35q0 28 -55 128zM725 1333q0 -66 -86 -113t-168 -47q-47 0 -133 30t-123 30q-36 0 -69 -30q-34 -30 -39 -30q-4 0 -4 12q0 58 44.5 98.5t104.5 40.5q24 0 118 -29q93 -28 166 -28
q101 0 170 65q10 10 14 10q5 -1 5 -9z" />
    <glyph glyph-name="uniFEF6" unicode="&#xfee0;&#xfe82;" arabic-form="final" 
d="M1229 0q-174 0 -209 12.5t-59.5 56t-34.5 113t-35 377.5q-71 -394 -168.5 -517.5t-335.5 -123.5q-83 0 -98 12q288 135 373.5 216t117.5 159q-6 129 -126 266.5t-253 180.5q-6 -24 -18 -68q-46 25 -127 84q-41 40 -41 86q0 76 14 109q240 -82 399.5 -263.5t176.5 -310.5
q58 238 58 419q0 111 -19 214l78 139l39 -630q11 -167 30.5 -267t45.5 -120.5t192 -20.5v-123zM775 1286q0 -66 -86 -113t-168 -47q-47 0 -133 30t-123 30q-36 0 -69 -30q-34 -30 -39 -30q-4 0 -4 12q0 58 44.5 98.5t104.5 40.5q24 0 118 -29q93 -28 166 -28q101 0 170 65
q10 10 14 10q5 -1 5 -9z" />
    <glyph glyph-name="uniFEF7" unicode="&#xfedf;&#xfe84;" arabic-form="isolated" 
d="M946 1071q-27 -38 -40.5 -92.5t-15.5 -116.5l-5 -244q-8 -112 -66 -253q48 -79 57 -100.5t9 -46.5q0 -71 -23 -144.5t-61 -73.5h-315l31 127q132 31 237 224q-206 372 -449 492l-6 -43l-143 105q26 99 32 174q169 -88 338 -273.5t265 -381.5q22 76 22 133q0 230 -24 499
q31 34 64 105q44 -58 93 -90zM780 302q-73 -136 -130 -179h137q17 0 32.5 16t15.5 35q0 28 -55 128zM144 1162l8 43q47 33 76 70q-98 6 -98 90q0 58 39 114t90 56q80 0 80 -73q0 -24 -12 -48q-73 53 -105 53q-51 0 -51 -43q0 -36 52.5 -68t92.5 -32q36 0 88 22v-73z" />
    <glyph glyph-name="uniFEF8" unicode="&#xfee0;&#xfe84;" arabic-form="final" 
d="M1229 0q-174 0 -209 12.5t-59.5 56t-34.5 113t-35 377.5q-71 -394 -168.5 -517.5t-335.5 -123.5q-83 0 -98 12q288 135 373.5 216t117.5 159q-6 129 -126 266.5t-253 180.5q-6 -24 -18 -68q-46 25 -127 84q-41 40 -41 86q0 76 14 109q240 -82 399.5 -263.5t176.5 -310.5
q58 238 58 419q0 111 -19 214l78 139l39 -630q11 -167 30.5 -267t45.5 -120.5t192 -20.5v-123zM175 1044l8 43q47 33 76 70q-98 6 -98 90q0 58 39 114t90 56q80 0 80 -73q0 -24 -12 -48q-73 53 -105 53q-51 0 -51 -43q0 -36 52.5 -68t92.5 -32q36 0 88 22v-73z" />
    <glyph glyph-name="uniFEF9" unicode="&#xfedf;&#xfe88;" arabic-form="isolated" 
d="M946 1071q-27 -38 -40.5 -92.5t-15.5 -116.5l-5 -244q-8 -112 -66 -253q48 -79 57 -100.5t9 -46.5q0 -71 -23 -144.5t-61 -73.5h-315l31 127q132 31 237 224q-206 372 -449 492l-6 -43l-143 105q26 99 32 174q169 -88 338 -273.5t265 -381.5q22 76 22 133q0 230 -24 499
q31 34 64 105q44 -58 93 -90zM780 302q-73 -136 -130 -179h137q17 0 32.5 16t15.5 35q0 28 -55 128zM432 -561l8 43q47 33 76 70q-98 6 -98 90q0 58 39 114t90 56q80 0 80 -73q0 -24 -12 -48q-73 53 -105 53q-51 0 -51 -43q0 -36 52.5 -68t92.5 -32q36 0 88 22v-73z" />
    <glyph glyph-name="uniFEFA" unicode="&#xfee0;&#xfe88;" arabic-form="final" 
d="M1229 0q-174 0 -209 12.5t-59.5 56t-34.5 113t-35 377.5q-71 -394 -168.5 -517.5t-335.5 -123.5q-83 0 -98 12q288 135 373.5 216t117.5 159q-6 129 -126 266.5t-253 180.5q-6 -24 -18 -68q-46 25 -127 84q-41 40 -41 86q0 76 14 109q240 -82 399.5 -263.5t176.5 -310.5
q58 238 58 419q0 111 -19 214l78 139l39 -630q11 -167 30.5 -267t45.5 -120.5t192 -20.5v-123zM334 -561l8 43q47 33 76 70q-98 6 -98 90q0 58 39 114t90 56q80 0 80 -73q0 -24 -12 -48q-73 53 -105 53q-51 0 -51 -43q0 -36 52.5 -68t92.5 -32q36 0 88 22v-73z" />
    <glyph glyph-name="uniFEFB" unicode="&#xfedf;&#xfe8e;" arabic-form="isolated" 
d="M946 1071q-27 -38 -40.5 -92.5t-15.5 -116.5l-5 -244q-8 -112 -66 -253q48 -79 57 -100.5t9 -46.5q0 -71 -23 -144.5t-61 -73.5h-315l31 127q132 31 237 224q-206 372 -449 492l-6 -43l-143 105q26 99 32 174q169 -88 338 -273.5t265 -381.5q22 76 22 133q0 230 -24 499
q31 34 64 105q44 -58 93 -90zM780 302q-73 -136 -130 -179h137q17 0 32.5 16t15.5 35q0 28 -55 128z" />
    <glyph glyph-name="uniFEFC" unicode="&#xfee0;&#xfe8e;" arabic-form="final" 
d="M1229 0q-174 0 -209 12.5t-59.5 56t-34.5 113t-35 377.5q-71 -394 -168.5 -517.5t-335.5 -123.5q-83 0 -98 12q288 135 373.5 216t117.5 159q-6 129 -126 266.5t-253 180.5q-6 -24 -18 -68q-46 25 -127 84q-41 40 -41 86q0 76 14 109q240 -82 399.5 -263.5t176.5 -310.5
q58 238 58 419q0 111 -19 214l78 139l39 -630q11 -167 30.5 -267t45.5 -120.5t192 -20.5v-123z" />
    <glyph glyph-name="uniFEDF_uniFB51.rlig" unicode="&#xfedf;&#xfb51;" 
d="M946 1071q-27 -38 -40.5 -92.5t-15.5 -116.5l-5 -244q-8 -112 -66 -253q48 -79 57 -100.5t9 -46.5q0 -71 -23 -144.5t-61 -73.5h-315l31 127q132 31 237 224q-206 372 -449 492l-6 -43l-143 105q26 99 32 174q169 -88 338 -273.5t265 -381.5q22 76 22 133q0 230 -24 499
q31 34 64 105q44 -58 93 -90zM780 302q-73 -136 -130 -179h137q17 0 32.5 16t15.5 35q0 28 -55 128zM226 1371q102 134 139.5 153.5t65.5 19.5q24 0 40 -28.5t16 -65.5q0 -62 -24.5 -101t-73.5 -49.5t-215 -10.5q-32 0 -46 -32q-22 -52 -26 -52q-15 0 -15 47q0 45 21 74.5
t40 37.5t78 7zM265 1370h111q76 0 76 38q0 56 -54 56q-21 0 -67.5 -33t-65.5 -61z" />
    <glyph glyph-name="uniFEE0_uniFB51.rlig" unicode="&#xfee0;&#xfb51;" 
d="M1229 0q-174 0 -209 12.5t-59.5 56t-34.5 113t-35 377.5q-71 -394 -168.5 -517.5t-335.5 -123.5q-83 0 -98 12q288 135 373.5 216t117.5 159q-6 129 -126 266.5t-253 180.5q-6 -24 -18 -68q-46 25 -127 84q-41 40 -41 86q0 76 14 109q240 -82 399.5 -263.5t176.5 -310.5
q58 238 58 419q0 111 -19 214l78 139l39 -630q11 -167 30.5 -267t45.5 -120.5t192 -20.5v-123zM226 1253q102 134 139.5 153.5t65.5 19.5q24 0 40 -28.5t16 -65.5q0 -62 -24.5 -101t-73.5 -49.5t-215 -10.5q-32 0 -46 -32q-22 -52 -26 -52q-15 0 -15 47q0 45 21 74.5
t40 37.5t78 7zM265 1252h111q76 0 76 38q0 56 -54 56q-21 0 -67.5 -33t-65.5 -61z" />
    <glyph glyph-name="uniFEDF_uniFEE0_uniFBAB.liga" unicode="&#xfedf;&#xfee0;&#xfbab;" 
d="M823 92q-23 -49 -57 -71q-33 -21 -126 -21q-20 0 -78 11q-51 10 -71 24q-19 13 -32 70t-25 174l-90 -76q-129 8 -201.5 15t-89.5 14q-33 12 -33 32q0 48 31 109t66 88q34 28 300 112q-2 25 -7 52.5t-13 59.5l78 101q4 -41 7.5 -83t6.5 -90.5t6 -105.5t6 -127
q4 -79 8 -128t8 -69q8 -39 50 -50q39 -10 90 -10q119 0 119 67q0 54 -4 101t-14.5 102.5t-29.5 126.5t-49 173q15 30 36 69t44 74q21 -113 35.5 -198t25 -157.5t19 -140t17.5 -145.5q13 -69 141 -69q100 0 100 70q0 31 -5 74.5t-14 100.5q-5 30 -11 62t-15.5 75t-24.5 101.5
t-37 142.5q31 64 80 146l95 -605q12 -77 12 -132q0 -45 -8.5 -76t-28 -49.5t-50 -27t-75.5 -8.5q-30 0 -59.5 5t-58.5 22q-57 28 -74 65zM431 328l-8 149q-147 -35 -215.5 -70t-68.5 -72q0 -13 92 -24q46 -5 75 -7.5t40 -2.5q18 0 37.5 6.5t47.5 20.5zM738 929
q-39 -86 -90 -86q-68 0 -68 92q0 42 9.5 63t19.5 21q13 0 13 -16v-6.5t-1 -10.5q-1 -7 -1.5 -11.5t-0.5 -7.5q0 -28 27 -28q43 0 61 67q7 33 10 49.5t9 16.5q14 0 19 -36q4 -37 37 -37t41 65q7 64 18 64q30 0 30 -109q0 -50 -26 -88q-25 -37 -60 -37q-27 0 -47 35zM717 1109
q-2 26 -7 65.5t-13 71.5l-19 84l50 86l21 -117q8 -38 8 -64q0 -28 -4.5 -49.5t-11 -37t-13.5 -25.5t-11 -14z" />
    <glyph glyph-name="uniFEDF_uniFEE0_uni06C1.liga" unicode="&#xfedf;&#xfee0;&#x6c1;" 
d="M823 92q-23 -49 -57 -71q-33 -21 -126 -21q-20 0 -78 11q-51 10 -71 24q-19 13 -32 70t-25 174l-90 -76q-129 8 -201.5 15t-89.5 14q-33 12 -33 32q0 48 31 109t66 88q34 28 300 112q-2 25 -7 52.5t-13 59.5l78 101q4 -41 7.5 -83t6.5 -90.5t6 -105.5t6 -127
q4 -79 8 -128t8 -69q8 -39 50 -50q39 -10 90 -10q119 0 119 67q0 54 -4 101t-14.5 102.5t-29.5 126.5t-49 173q15 30 36 69t44 74q21 -113 35.5 -198t25 -157.5t19 -140t17.5 -145.5q13 -69 141 -69q100 0 100 70q0 31 -5 74.5t-14 100.5q-5 30 -11 62t-15.5 75t-24.5 101.5
t-37 142.5q31 64 80 146l95 -605q12 -77 12 -132q0 -45 -8.5 -76t-28 -49.5t-50 -27t-75.5 -8.5q-30 0 -59.5 5t-58.5 22q-57 28 -74 65zM431 328l-8 149q-147 -35 -215.5 -70t-68.5 -72q0 -13 92 -24q46 -5 75 -7.5t40 -2.5q18 0 37.5 6.5t47.5 20.5z" />
    <glyph glyph-name="uni0620.init" unicode="&#x620;" 
d="M0 0v123h885q71 0 146.5 32t75.5 65q0 178 -104 292l68 170q116 -174 116 -366q0 -102 -65 -209t-158 -107h-964zM1065 -240q0 -66 -52 -108t-104 -42q-43 0 -68.5 34t-25.5 85q0 67 35 119.5t98 52.5q56 0 86.5 -42.5t30.5 -98.5zM852 -240q0 -50 86 -50q73 0 73 27
q0 19 -36 53.5t-72 34.5q-51 0 -51 -65z" />
    <glyph glyph-name="uni0620.medi" unicode="&#x620;" 
d="M1229 0h-76q-108 0 -180.5 12t-122 65.5t-86.5 135.5q-21 -72 -90 -142.5t-133 -70.5h-541v123h526q64 0 121 39.5t57 107.5q0 107 -64 259l83 144q63 -172 63 -268q0 -127 69 -204.5t192 -77.5h182v-123zM687 -240q0 -66 -52 -108t-104 -42q-43 0 -68.5 34t-25.5 85
q0 67 35 119.5t98 52.5q56 0 86.5 -42.5t30.5 -98.5zM474 -240q0 -50 86 -50q73 0 73 27q0 19 -36 53.5t-72 34.5q-51 0 -51 -65z" />
    <glyph glyph-name="uni0620.fina" unicode="&#x620;" 
d="M1229 0q-11 0 -98 20.5t-148 19.5q-165 0 -165 -16q0 -14 36 -21l73 -18q65 -19 65 -75q0 -113 -179 -184q-160 -51 -322 -51q-373 -10 -373 207q0 59 29 146q34 105 77 105q18 0 18 -21q0 6 -27 -82q-19 -59 -19 -106q0 -68 80 -92q79 -32 252 -32q90 0 238 21
q131 26 131 51q0 24 -36 30l-67 17q-71 24 -71 68q0 64 66 117q72 51 203 51q128 -1 237 -32v-123zM775 -446q0 -53 -52 -86.5t-104 -33.5q-43 0 -68.5 27t-25.5 68q0 53 35 95t98 42q56 0 86.5 -34t30.5 -78zM562 -446q0 -40 86 -40q73 0 73 21q0 15 -36 43t-72 28
q-51 0 -51 -52z" />
    <glyph glyph-name="uni0622" unicode="&#x622;" arabic-form="isolated" 
d="M552 59q0 240 -20 513q-20 287 -20 423l104 166l-3 -155q0 -167 5 -306q8 -218 8 -306q0 -293 -74 -335zM888 1425q0 -66 -86 -113t-168 -47q-47 0 -133 30t-123 30q-36 0 -69 -30q-34 -30 -39 -30q-4 0 -4 12q0 58 44.5 98.5t104.5 40.5q24 0 118 -29q93 -28 166 -28
q101 0 170 65q10 10 14 10q5 -1 5 -9z" />
    <glyph glyph-name="uni0623" unicode="&#x623;" arabic-form="isolated" 
d="M552 59q0 240 -20 513q-20 287 -20 423l104 166l-3 -155q0 -167 5 -306q8 -218 8 -306q0 -293 -74 -335zM421 1230l8 43q47 33 76 70q-98 6 -98 90q0 58 39 114t90 56q80 0 80 -73q0 -24 -12 -48q-73 53 -105 53q-51 0 -51 -43q0 -36 52.5 -68t92.5 -32q36 0 88 22v-73z
" />
    <glyph glyph-name="uni0624" unicode="&#x624;" arabic-form="isolated" 
d="M869 9q-59 -11 -108 -11q-139 0 -171 37t-32 91q0 106 65 272t139 166q83 0 126.5 -147t43.5 -349q0 -184 -112.5 -331t-260.5 -147q-76 0 -219.5 30t-143.5 65q0 16 16 16q33 0 85 -12t91 -12q103 0 241 60t192.5 125.5t47.5 146.5zM847 135q0 81 -27.5 184.5
t-68.5 103.5q-40 0 -71.5 -85t-31.5 -144q0 -34 18.5 -53.5t98.5 -19.5q54 0 82 14zM544 677l8 43q47 33 76 70q-98 6 -98 90q0 58 39 114t90 56q80 0 80 -73q0 -24 -12 -48q-73 53 -105 53q-51 0 -51 -43q0 -36 52.5 -68t92.5 -32q36 0 88 22v-73z" />
    <glyph glyph-name="uni0625" unicode="&#x625;" arabic-form="isolated" 
d="M552 59q0 240 -20 513q-20 287 -20 423l104 166l-3 -155q0 -167 5 -306q8 -218 8 -306q0 -293 -74 -335zM458 -483l8 43q47 33 76 70q-98 6 -98 90q0 58 39 114t90 56q80 0 80 -73q0 -24 -12 -48q-73 53 -105 53q-51 0 -51 -43q0 -36 52.5 -68t92.5 -32q36 0 88 22v-73z
" />
    <glyph glyph-name="uni0626" unicode="&#x626;" arabic-form="isolated" 
d="M1043 516q-35 26 -86 26q-57 0 -154.5 -61.5t-97.5 -120.5q0 -35 94 -52q108 -19 157.5 -33.5t81 -49.5t31.5 -88q0 -51 -58 -172t-195 -165t-261 -44q-385 0 -385 284q0 100 48 224t85 124q10 0 10 -15q0 -12 -35 -101q-35 -90 -35 -149q0 -117 71.5 -175.5t264.5 -58.5
q134 0 277 51.5t143 124.5q0 39 -33.5 64.5t-136 42t-137.5 39.5t-35 60q0 134 108 264t234 130q72 0 72 -57q0 -50 -28 -92zM401 650l8 43q47 33 76 70q-98 6 -98 90q0 58 39 114t90 56q80 0 80 -73q0 -24 -12 -48q-73 53 -105 53q-51 0 -51 -43q0 -36 52.5 -68t92.5 -32
q36 0 88 22v-73z" />
    <glyph glyph-name="uni0627" unicode="&#x627;" arabic-form="isolated" 
d="M552 59q0 240 -20 513q-20 287 -20 423l104 166l-3 -155q0 -167 5 -306q8 -218 8 -306q0 -293 -74 -335z" />
    <glyph glyph-name="uni0628" unicode="&#x628;" arabic-form="isolated" 
d="M1001 8q-70 -8 -253 -8h-265q-267 0 -356.5 51t-89.5 154q0 109 50 210t75 101q9 0 9 -12q0 -9 -13 -34q-47 -91 -47 -151q0 -196 362 -196h401q51 0 111 19.5t89.5 40.5t29.5 44q0 165 -103 283l66 172q117 -195 117 -340q0 -227 -183 -334zM775 -321l-109 -110
l-111 110l111 109z" />
    <glyph glyph-name="uni0629" unicode="&#x629;" arabic-form="isolated" 
d="M612 547q-17 9 -63 9q35 89 50 108t46 19q91 0 188 -100.5t97 -224.5q0 -121 -31.5 -204.5t-78.5 -123t-146 -38.5q-81 0 -127.5 54.5t-47.5 147.5q1 83 20.5 154.5t92.5 198.5zM676 517q-105 -167 -105 -223q0 -176 133 -176q143 0 143 144q0 109 -44 160.5t-127 94.5z
M674 960l-108 -109l-110 111l110 109l100 -100l109 108l110 -109l-110 -111z" />
    <glyph glyph-name="uni062A" unicode="&#x62a;" arabic-form="isolated" 
d="M1001 8q-70 -8 -253 -8h-265q-267 0 -356.5 51t-89.5 154q0 109 50 210t75 101q9 0 9 -12q0 -9 -13 -34q-47 -91 -47 -151q0 -196 362 -196h401q51 0 111 19.5t89.5 40.5t29.5 44q0 165 -103 283l66 172q117 -195 117 -340q0 -227 -183 -334zM662 783l-108 -109l-110 111
l110 109l100 -100l109 108l110 -109l-110 -111z" />
    <glyph glyph-name="uni062B" unicode="&#x62b;" arabic-form="isolated" 
d="M1001 8q-70 -8 -253 -8h-265q-267 0 -356.5 51t-89.5 154q0 109 50 210t75 101q9 0 9 -12q0 -9 -13 -34q-47 -91 -47 -151q0 -196 362 -196h401q51 0 111 19.5t89.5 40.5t29.5 44q0 165 -103 283l66 172q117 -195 117 -340q0 -227 -183 -334zM734 981l-110 -110l-110 110
l110 109zM628 768l-108 -109l-110 111l110 109l100 -100l109 108l110 -109l-110 -111z" />
    <glyph glyph-name="uni062C" unicode="&#x62c;" arabic-form="isolated" 
d="M1211 -340q0 -78 -167 -161q-145 -60 -236 -60q-234 0 -380 115q-156 123 -156 304q0 167 164 320q138 114 314 154q-25 6 -89 35q-52 24 -87 24q-161 0 -222 -68q-21 -24 -31 -24q-9 0 -9 24q0 93 103 158q91 57 188 57q28 0 193.5 -66.5t266.5 -66.5l-44 -131
q-220 0 -409 -99q-226 -119 -226 -294q0 -149 147 -244q136 -67 271 -67q123 0 257.5 45t151.5 45zM860 -95l-109 -110l-111 110l111 109z" />
    <glyph glyph-name="uni062D" unicode="&#x62d;" arabic-form="isolated" 
d="M1211 -340q0 -78 -167 -161q-145 -60 -236 -60q-234 0 -380 115q-156 123 -156 304q0 167 164 320q138 114 314 154q-25 6 -89 35q-52 24 -87 24q-161 0 -222 -68q-21 -24 -31 -24q-9 0 -9 24q0 93 103 158q91 57 188 57q28 0 193.5 -66.5t266.5 -66.5l-44 -131
q-220 0 -409 -99q-226 -119 -226 -294q0 -149 147 -244q136 -67 271 -67q123 0 257.5 45t151.5 45z" />
    <glyph glyph-name="uni062E" unicode="&#x62e;" arabic-form="isolated" 
d="M1211 -340q0 -78 -167 -161q-145 -60 -236 -60q-234 0 -380 115q-156 123 -156 304q0 167 164 320q138 114 314 154q-25 6 -89 35q-52 24 -87 24q-161 0 -222 -68q-21 -24 -31 -24q-9 0 -9 24q0 93 103 158q91 57 188 57q28 0 193.5 -66.5t266.5 -66.5l-44 -131
q-220 0 -409 -99q-226 -119 -226 -294q0 -149 147 -244q136 -67 271 -67q123 0 257.5 45t151.5 45zM868 910l-109 -110l-111 110l111 109z" />
    <glyph glyph-name="uni062F" unicode="&#x62f;" arabic-form="isolated" 
d="M661 672l14 141q90 -15 210 -171t120 -349q0 -305 -361 -305q-112 0 -171 30.5t-59 118.5q0 34 11 78.5t26 44.5q12 0 13 -19q1 -36 4 -52t31.5 -32.5t79 -25t123.5 -8.5q97 0 174 27t77 76q0 168 -103.5 300t-188.5 146z" />
    <glyph glyph-name="uni0630" unicode="&#x630;" arabic-form="isolated" 
d="M661 672l14 141q90 -15 210 -171t120 -349q0 -305 -361 -305q-112 0 -171 30.5t-59 118.5q0 34 11 78.5t26 44.5q12 0 13 -19q1 -36 4 -52t31.5 -32.5t79 -25t123.5 -8.5q97 0 174 27t77 76q0 168 -103.5 300t-188.5 146zM730 1094l-109 -110l-111 110l111 109z" />
    <glyph glyph-name="uni0631" unicode="&#x631;" arabic-form="isolated" 
d="M727 494l63 170q168 -157 168 -486q0 -149 -58.5 -286t-160 -224.5t-192.5 -87.5q-106 0 -170 19l-185 55q-48 14 -48 41t25 27q7 0 88 -16q81 -15 169 -15q100 0 218.5 80.5t187.5 178t69 150.5q0 214 -174 394z" />
    <glyph glyph-name="uni0632" unicode="&#x632;" arabic-form="isolated" 
d="M727 494l63 170q168 -157 168 -486q0 -149 -58.5 -286t-160 -224.5t-192.5 -87.5q-106 0 -170 19l-185 55q-48 14 -48 41t25 27q7 0 88 -16q81 -15 169 -15q100 0 218.5 80.5t187.5 178t69 150.5q0 214 -174 394zM803 948l-109 -110l-111 110l111 109z" />
    <glyph glyph-name="uni0633" unicode="&#x633;" arabic-form="isolated" 
d="M784 73q-47 -72 -107 -72q-45 0 -88 35q-8 -191 -94.5 -299t-238.5 -108q-113 0 -181.5 70.5t-68.5 337.5q0 146 87 311.5t140 165.5q12 0 12 -14q-111 -215 -133.5 -314t-22.5 -169q0 -117 49.5 -187.5t139.5 -70.5q241 0 241 239q0 161 -53 284l40 242
q37 -47 61.5 -161.5t24.5 -209.5q34 -29 73 -29q37 0 63 33.5t36 74.5t36 158q20 93 49 93q27 0 27 -49q0 -28 -10 -86t-10 -87q0 -134 109 -134q61 0 82 23t21 82q0 152 -73 312l92 129q60 -101 60 -340q0 -328 -240 -328q-88 0 -123 68z" />
    <glyph glyph-name="uni0634" unicode="&#x634;" arabic-form="isolated" 
d="M784 73q-47 -72 -107 -72q-45 0 -88 35q-8 -191 -94.5 -299t-238.5 -108q-113 0 -181.5 70.5t-68.5 337.5q0 146 87 311.5t140 165.5q12 0 12 -14q-111 -215 -133.5 -314t-22.5 -169q0 -117 49.5 -187.5t139.5 -70.5q241 0 241 239q0 161 -53 284l40 242
q37 -47 61.5 -161.5t24.5 -209.5q34 -29 73 -29q37 0 63 33.5t36 74.5t36 158q20 93 49 93q27 0 27 -49q0 -28 -10 -86t-10 -87q0 -134 109 -134q61 0 82 23t21 82q0 152 -73 312l92 129q60 -101 60 -340q0 -328 -240 -328q-88 0 -123 68zM789 1067l-110 -110l-110 110
l110 109zM683 854l-108 -109l-110 111l110 109l100 -100l109 108l110 -109l-110 -111z" />
    <glyph glyph-name="uni0635" unicode="&#x635;" arabic-form="isolated" 
d="M573 33q-6 -195 -87.5 -306.5t-228.5 -111.5q-97 0 -156 42.5t-80 125.5t-21 248q0 159 84 319.5t133 160.5q8 0 8 -12q0 1 -3 -6q-32 -71 -87 -214.5t-55 -260.5q0 -125 47.5 -198t136.5 -73q240 0 240 253q0 152 -55 279q26 112 42 243q20 -22 52.5 -145.5t32.5 -245.5
q12 -4 68 -10q185 504 382 504q192 0 192 -353q0 -90 -29.5 -149.5t-97.5 -92t-278 -32.5q-198 0 -240 35zM707 121h327q97 0 97 118q0 87 -49 169t-121 82q-30 0 -60 -21t-59 -62.5t-43 -75.5z" />
    <glyph glyph-name="uni0636" unicode="&#x636;" arabic-form="isolated" 
d="M573 33q-6 -195 -87.5 -306.5t-228.5 -111.5q-97 0 -156 42.5t-80 125.5t-21 248q0 159 84 319.5t133 160.5q8 0 8 -12q0 1 -3 -6q-32 -71 -87 -214.5t-55 -260.5q0 -125 47.5 -198t136.5 -73q240 0 240 253q0 152 -55 279q26 112 42 243q20 -22 52.5 -145.5t32.5 -245.5
q12 -4 68 -10q185 504 382 504q192 0 192 -353q0 -90 -29.5 -149.5t-97.5 -92t-278 -32.5q-198 0 -240 35zM707 121h327q97 0 97 118q0 87 -49 169t-121 82q-30 0 -60 -21t-59 -62.5t-43 -75.5zM1011 870l-109 -110l-111 110l111 109z" />
    <glyph glyph-name="uni0637" unicode="&#x637;" arabic-form="isolated" 
d="M12 123h287q128 106 128 289q0 521 -59 619l75 122l94 -96q-45 -48 -45 -285q0 -69 5 -181q4 -113 4 -140q0 -46 -40 -220l180 204q81 93 161 139.5t152 46.5q104 0 162 -88.5t58 -218.5q0 -158 -93 -236t-350 -78h-544q-71 0 -107.5 24t-67.5 99zM436 123h496
q91 0 126 33t35 108q0 90 -51 158t-132 68q-58 0 -125.5 -37.5t-204.5 -189.5q-97 -106 -144 -140z" />
    <glyph glyph-name="uni0638" unicode="&#x638;" arabic-form="isolated" 
d="M12 123h287q128 106 128 289q0 521 -59 619l75 122l94 -96q-45 -48 -45 -285q0 -69 5 -181q4 -113 4 -140q0 -46 -40 -220l180 204q81 93 161 139.5t152 46.5q104 0 162 -88.5t58 -218.5q0 -158 -93 -236t-350 -78h-544q-71 0 -107.5 24t-67.5 99zM436 123h496
q91 0 126 33t35 108q0 90 -51 158t-132 68q-58 0 -125.5 -37.5t-204.5 -189.5q-97 -106 -144 -140zM857 873l-109 -110l-111 110l111 109z" />
    <glyph glyph-name="uni0639" unicode="&#x639;" arabic-form="isolated" 
d="M505 155q-183 56 -183 185q0 111 82 220q88 117 196 117q64 0 143 -26q101 -33 101 -83q-5 -13 -18 -13q-6 0 -58 19t-85 19q-72 0 -180 -64q-119 -69 -119 -134q0 -56 109 -96q88 -31 158 -31q72 0 242 66l-36 -150q-190 -21 -308 -94q-171 -116 -171 -268
q0 -258 409 -258q237 0 420 114l14 -19q-65 -92 -196.5 -156t-247.5 -64q-495 0 -495 347q0 94 54 198q63 111 169 171z" />
    <glyph glyph-name="uni063A" unicode="&#x63a;" arabic-form="isolated" 
d="M505 155q-183 56 -183 185q0 111 82 220q88 117 196 117q64 0 143 -26q101 -33 101 -83q-5 -13 -18 -13q-6 0 -58 19t-85 19q-72 0 -180 -64q-119 -69 -119 -134q0 -56 109 -96q88 -31 158 -31q72 0 242 66l-36 -150q-190 -21 -308 -94q-171 -116 -171 -268
q0 -258 409 -258q237 0 420 114l14 -19q-65 -92 -196.5 -156t-247.5 -64q-495 0 -495 347q0 94 54 198q63 111 169 171zM715 1014l-109 -110l-111 110l111 109z" />
    <glyph glyph-name="uni063B.init" unicode="&#x63b;" 
d="M1229 1160l-49 -118l-276 -135q-207 -101 -207 -141q0 -36 157 -177q160 -143 193.5 -197.5t33.5 -163.5q0 -152 -47.5 -189.5t-180.5 -38.5h-853v123h415h270q130 0 219 6.5t102 17.5t13 41q0 107 -243 323l-29 26q-132 118 -141.5 133.5t-9.5 47.5q0 45 27.5 97.5
t64.5 84t174 102.5t367 158zM702 1130l-108 -109l-110 111l110 109l100 -100l109 108l110 -109l-110 -111z" />
    <glyph glyph-name="uni063B.medi" unicode="&#x63b;" 
d="M650 123q24 0 57.5 26.5t33.5 67.5q0 91 -227 292l-48 43q-109 98 -120.5 114t-11.5 51q0 44 27.5 97t64.5 84.5t174.5 102.5t366.5 158l-49 -118l-276 -135q-207 -101 -207 -141q0 -32 87 -115q200 -191 253 -273q12 -18 84.5 -112.5t119 -118t92.5 -23.5h158v-123h-29
q-118 0 -190.5 17.5t-129 62.5t-97.5 119q-46 -199 -240 -199h-543v123h650zM443 1130l-108 -109l-110 111l110 109l100 -100l109 108l110 -109l-110 -111z" />
    <glyph glyph-name="uni063B.fina" unicode="&#x63b;" 
d="M583 -13h-12q-375 0 -471.5 48t-96.5 168q0 83 49 191t84 108q7 0 7 -6q0 -7 -33 -79t-33 -116q0 -81 44.5 -122.5t137 -54.5t320.5 -13q164 0 219 6.5t86 34t31 60.5q0 92 -228 294l-48 43q-110 99 -121 115t-11 50q0 44 27.5 97t64.5 84.5t174.5 102.5t366.5 158
l-49 -118l-276 -135q-207 -101 -207 -141q0 -32 87 -115q201 -191 253 -273q14 -21 85 -113t109.5 -115t71.5 -23h15v-123h-14q-151 0 -259 195q-29 -126 -106.5 -167t-266.5 -41zM659 1157l-108 -109l-110 111l110 109l100 -100l109 108l110 -109l-110 -111z" />
    <glyph glyph-name="uni063C.init" unicode="&#x63c;" 
d="M1229 1160l-49 -118l-276 -135q-207 -101 -207 -141q0 -36 157 -177q160 -143 193.5 -197.5t33.5 -163.5q0 -152 -47.5 -189.5t-180.5 -38.5h-853v123h415h270q130 0 219 6.5t102 17.5t13 41q0 107 -243 323l-29 26q-132 118 -141.5 133.5t-9.5 47.5q0 45 27.5 97.5
t64.5 84t174 102.5t367 158zM674 -249l-108 -110l-110 111l110 109l100 -99l109 107l110 -109l-110 -111zM780 -451l-110 -110l-110 110l110 109z" />
    <glyph glyph-name="uni063C.medi" unicode="&#x63c;" 
d="M650 123q24 0 57.5 26.5t33.5 67.5q0 91 -227 292l-48 43q-109 98 -120.5 114t-11.5 51q0 44 27.5 97t64.5 84.5t174.5 102.5t366.5 158l-49 -118l-276 -135q-207 -101 -207 -141q0 -32 87 -115q200 -191 253 -273q12 -18 84.5 -112.5t119 -118t92.5 -23.5h158v-123h-29
q-118 0 -190.5 17.5t-129 62.5t-97.5 119q-46 -199 -240 -199h-543v123h650zM539 -249l-108 -110l-110 111l110 109l100 -99l109 107l110 -109l-110 -111zM645 -451l-110 -110l-110 110l110 109z" />
    <glyph glyph-name="uni063C.fina" unicode="&#x63c;" 
d="M583 -13h-12q-375 0 -471.5 48t-96.5 168q0 83 49 191t84 108q7 0 7 -6q0 -7 -33 -79t-33 -116q0 -81 44.5 -122.5t137 -54.5t320.5 -13q164 0 219 6.5t86 34t31 60.5q0 92 -228 294l-48 43q-110 99 -121 115t-11 50q0 44 27.5 97t64.5 84.5t174.5 102.5t366.5 158
l-49 -118l-276 -135q-207 -101 -207 -141q0 -32 87 -115q201 -191 253 -273q14 -21 85 -113t109.5 -115t71.5 -23h15v-123h-14q-151 0 -259 195q-29 -126 -106.5 -167t-266.5 -41zM552 -249l-108 -110l-110 111l110 109l100 -99l109 107l110 -109l-110 -111zM658 -451
l-110 -110l-110 110l110 109z" />
    <glyph glyph-name="uni063D.init" unicode="&#x63d;" 
d="M0 0v123h885q71 0 146.5 32t75.5 65q0 178 -104 292l68 170q116 -174 116 -366q0 -102 -65 -209t-158 -107h-964zM951 -346l-108 -109l-110 111l110 109l100 -100l109 108l110 -109l-110 -111zM1170 870q0 -27 -25 -27q-18 0 -35 26l-107 160l-107 -160q-17 -26 -35 -26
q-25 0 -25 27q0 12 15 34l152 228l152 -228q15 -22 15 -34z" />
    <glyph glyph-name="uni063D.medi" unicode="&#x63d;" 
d="M1229 0h-76q-108 0 -180.5 12t-122 65.5t-86.5 135.5q-21 -72 -90 -142.5t-133 -70.5h-541v123h526q64 0 121 39.5t57 107.5q0 107 -64 259l83 144q63 -172 63 -268q0 -127 69 -204.5t192 -77.5h182v-123zM789 -345l-108 -109l-110 111l110 109l100 -100l109 108
l110 -109l-110 -111zM890 870q0 -27 -25 -27q-18 0 -35 26l-107 160l-107 -160q-17 -26 -35 -26q-25 0 -25 27q0 12 15 34l152 228l152 -228q15 -22 15 -34z" />
    <glyph glyph-name="uni063D.fina" unicode="&#x63d;" 
d="M1229 0q-44 0 -107 4q-64 4 -140 4q-225 0 -225 -69q0 -16 70 -31q138 -29 169 -54.5t31 -54.5q0 -158 -161.5 -259t-374.5 -101q-199 0 -289 84.5t-90 254.5q0 91 47 207t84 116q18 0 18 -20q0 -16 -22 -54q-51 -91 -51 -177q0 -266 340 -266q125 0 264 34t139 83
q0 50 -126 79q-125 29 -125 70q0 132 81.5 202.5t229.5 70.5h238v-123zM703 322q0 -27 -25 -27q-18 0 -35 26l-107 160l-107 -160q-17 -26 -35 -26q-25 0 -25 27q0 12 15 34l152 228l152 -228q15 -22 15 -34z" />
    <glyph glyph-name="uni063E.init" unicode="&#x63e;" 
d="M0 0v123h885q71 0 146.5 32t75.5 65q0 178 -104 292l68 170q116 -174 116 -366q0 -102 -65 -209t-158 -107h-964zM951 -346l-108 -109l-110 111l110 109l100 -100l109 108l110 -109l-110 -111zM990 976l-108 -109l-110 111l110 109l100 -100l109 108l110 -109l-110 -111z
" />
    <glyph glyph-name="uni063E.medi" unicode="&#x63e;" 
d="M1229 0h-76q-108 0 -180.5 12t-122 65.5t-86.5 135.5q-21 -72 -90 -142.5t-133 -70.5h-541v123h526q64 0 121 39.5t57 107.5q0 107 -64 259l83 144q63 -172 63 -268q0 -127 69 -204.5t192 -77.5h182v-123zM789 -345l-108 -109l-110 111l110 109l100 -100l109 108
l110 -109l-110 -111zM622 957l-108 -109l-110 111l110 109l100 -100l109 108l110 -109l-110 -111z" />
    <glyph glyph-name="uni063E.fina" unicode="&#x63e;" 
d="M1229 0q-44 0 -107 4q-64 4 -140 4q-225 0 -225 -69q0 -16 70 -31q138 -29 169 -54.5t31 -54.5q0 -158 -161.5 -259t-374.5 -101q-199 0 -289 84.5t-90 254.5q0 91 47 207t84 116q18 0 18 -20q0 -16 -22 -54q-51 -91 -51 -177q0 -266 340 -266q125 0 264 34t139 83
q0 50 -126 79q-125 29 -125 70q0 132 81.5 202.5t229.5 70.5h238v-123zM592 410l-108 -109l-110 111l110 109l100 -100l109 108l110 -109l-110 -111z" />
    <glyph glyph-name="uni063F.init" unicode="&#x63f;" 
d="M0 0v123h885q71 0 146.5 32t75.5 65q0 178 -104 292l68 170q116 -174 116 -366q0 -102 -65 -209t-158 -107h-964zM951 -346l-108 -109l-110 111l110 109l100 -100l109 108l110 -109l-110 -111zM1113 1197l-110 -110l-110 110l110 109zM1007 984l-108 -109l-110 111
l110 109l100 -100l109 108l110 -109l-110 -111z" />
    <glyph glyph-name="uni063F.medi" unicode="&#x63f;" 
d="M1229 0h-76q-108 0 -180.5 12t-122 65.5t-86.5 135.5q-21 -72 -90 -142.5t-133 -70.5h-541v123h526q64 0 121 39.5t57 107.5q0 107 -64 259l83 144q63 -172 63 -268q0 -127 69 -204.5t192 -77.5h182v-123zM789 -345l-108 -109l-110 111l110 109l100 -100l109 108
l110 -109l-110 -111zM737 1132l-110 -110l-110 110l110 109zM631 919l-108 -109l-110 111l110 109l100 -100l109 108l110 -109l-110 -111z" />
    <glyph glyph-name="uni063F.fina" unicode="&#x63f;" 
d="M1229 0q-44 0 -107 4q-64 4 -140 4q-225 0 -225 -69q0 -16 70 -31q138 -29 169 -54.5t31 -54.5q0 -158 -161.5 -259t-374.5 -101q-199 0 -289 84.5t-90 254.5q0 91 47 207t84 116q18 0 18 -20q0 -16 -22 -54q-51 -91 -51 -177q0 -266 340 -266q125 0 264 34t139 83
q0 50 -126 79q-125 29 -125 70q0 132 81.5 202.5t229.5 70.5h238v-123zM698 586l-110 -110l-110 110l110 109zM592 373l-108 -109l-110 111l110 109l100 -100l109 108l110 -109l-110 -111z" />
    <glyph glyph-name="uni0641" unicode="&#x641;" arabic-form="isolated" 
d="M1129 351q-75 -53 -152 -53q-70 0 -119.5 24t-49.5 68q0 125 61 268t148 143t139.5 -134t52.5 -277t-32 -233t-110.5 -127t-326.5 -37h-270q-289 0 -374 56t-85 159q0 85 44.5 191.5t85.5 106.5q12 0 12 -18q0 -16 -31 -81q-31 -64 -31 -101q0 -93 86 -141.5t356 -48.5
h171q315 0 373.5 47.5t58.5 124.5q0 23 -7 63zM1096 467q-42 209 -109 209q-48 0 -80.5 -66.5t-32.5 -130.5q0 -55 91 -55q45 0 131 43zM1065 1091l-109 -110l-111 110l111 109z" />
    <glyph glyph-name="uni0642" unicode="&#x642;" arabic-form="isolated" 
d="M940 946l-108 -109l-110 111l110 109l100 -100l109 108l110 -109l-110 -111zM1067 137q-112 0 -166.5 5.5t-91.5 29t-37 63.5q0 105 59 255.5t134 150.5q188 0 188 -576q0 -211 -143.5 -329.5t-385.5 -118.5q-257 0 -357.5 87t-100.5 270q0 57 41 195.5t76 138.5
q16 0 16 -22q0 -16 -31 -113q-30 -97 -30 -154q0 -134 85.5 -200.5t285.5 -66.5q216 0 341 83t125 242q0 27 -8 60zM1053 256l-12 122q-6 58 -29.5 89.5t-61.5 31.5t-65 -66t-27 -123q0 -54 195 -54z" />
    <glyph glyph-name="uni0643" unicode="&#x643;" arabic-form="isolated" 
d="M1040 1057l66 121q21 -27 103 -88q-33 -61 -33 -170q0 -47 16 -266t16 -328q0 -118 -35.5 -194t-120.5 -113t-372 -37q-306 0 -403 58t-97 166q0 51 13.5 104t32.5 53q14 0 14 -18q0 -6 -3 -18t-3 -22q0 -97 102 -144t333 -47h69q400 0 400 141q0 139 -28 420l-32 315
q-3 34 -38 67zM466 481q11 15 113 40q96 23 96 44q0 20 -74 28q-73 8 -73 52q0 54 43.5 130.5t80.5 76.5q35 0 35 -26q0 -40 -21 -67q-16 15 -40 15q-20 0 -36.5 -18.5t-16.5 -38.5q0 -29 79 -40q80 -11 80 -67q0 -41 -23.5 -80t-43.5 -54t-66 -15q-132 0 -133 20z" />
    <glyph glyph-name="uni0644" unicode="&#x644;" arabic-form="isolated" 
d="M944 1024q26 55 72 137q36 -39 112 -104q-42 -62 -50.5 -86t-8.5 -60q0 -79 30 -378q31 -299 31 -353q0 -168 -57 -235t-206.5 -106.5t-291.5 -39.5q-144 0 -227.5 61.5t-83.5 170.5q0 85 41.5 195t63.5 110q16 0 16 -14q0 -10 -30 -78q-29 -68 -29 -113
q0 -68 29.5 -104.5t83 -64.5t114.5 -28q180 0 312 30t163 61t31 92q0 66 -19 250l-53 512q-13 127 -43 145z" />
    <glyph glyph-name="uni0645" unicode="&#x645;" arabic-form="isolated" 
d="M1229 133v-133q-149 37 -389 37q-216 0 -252 -31t-36 -93q0 -24 24 -99t39 -140t15 -120q0 -33 -25 -74t-40 -41l-18 78q-29 119 -60 206q-53 136 -53 199q0 135 125 189q-72 105 -72 232q0 249 275 249q101 0 227.5 -128t239.5 -331zM1133 123q-98 158 -199 256t-174 98
q-164 0 -164 -188q0 -75 29 -150q99 23 230 23q192 0 278 -39z" />
    <glyph glyph-name="uni0646" unicode="&#x646;" arabic-form="isolated" 
d="M849 865l-110 -109l-110 110l110 109zM982 351l69 219q33 -62 64 -215t31 -240q0 -234 -138 -367t-379 -133q-162 0 -268.5 89t-106.5 235q0 188 74.5 351.5t118.5 163.5q18 0 18 -17q0 -24 -38 -94q-83 -151 -83 -316q0 -109 92 -191t205 -82q160 0 290.5 67t130.5 183
q0 166 -80 347z" />
    <glyph glyph-name="uni0647" unicode="&#x647;" arabic-form="isolated" 
d="M612 547q-17 9 -63 9q35 89 50 108t46 19q91 0 188 -100.5t97 -224.5q0 -121 -31.5 -204.5t-78.5 -123t-146 -38.5q-81 0 -127.5 54.5t-47.5 147.5q1 83 20.5 154.5t92.5 198.5zM676 517q-105 -167 -105 -223q0 -176 133 -176q143 0 143 144q0 109 -44 160.5t-127 94.5z
" />
    <glyph glyph-name="uni0648" unicode="&#x648;" arabic-form="isolated" 
d="M869 9q-59 -11 -108 -11q-139 0 -171 37t-32 91q0 106 65 272t139 166q83 0 126.5 -147t43.5 -349q0 -184 -112.5 -331t-260.5 -147q-76 0 -219.5 30t-143.5 65q0 16 16 16q33 0 85 -12t91 -12q103 0 241 60t192.5 125.5t47.5 146.5zM847 135q0 81 -27.5 184.5
t-68.5 103.5q-40 0 -71.5 -85t-31.5 -144q0 -34 18.5 -53.5t98.5 -19.5q54 0 82 14z" />
    <glyph glyph-name="uni0649" unicode="&#x649;" arabic-form="isolated" 
d="M1043 516q-35 26 -86 26q-57 0 -154.5 -61.5t-97.5 -120.5q0 -35 94 -52q108 -19 157.5 -33.5t81 -49.5t31.5 -88q0 -51 -58 -172t-195 -165t-261 -44q-385 0 -385 284q0 100 48 224t85 124q10 0 10 -15q0 -12 -35 -101q-35 -90 -35 -149q0 -117 71.5 -175.5t264.5 -58.5
q134 0 277 51.5t143 124.5q0 39 -33.5 64.5t-136 42t-137.5 39.5t-35 60q0 134 108 264t234 130q72 0 72 -57q0 -50 -28 -92z" />
    <glyph glyph-name="uni064A" unicode="&#x64a;" arabic-form="isolated" 
d="M1043 516q-35 26 -86 26q-57 0 -154.5 -61.5t-97.5 -120.5q0 -35 94 -52q108 -19 157.5 -33.5t81 -49.5t31.5 -88q0 -51 -58 -172t-195 -165t-261 -44q-385 0 -385 284q0 100 48 224t85 124q10 0 10 -15q0 -12 -35 -101q-35 -90 -35 -149q0 -117 71.5 -175.5t264.5 -58.5
q134 0 277 51.5t143 124.5q0 39 -33.5 64.5t-136 42t-137.5 39.5t-35 60q0 134 108 264t234 130q72 0 72 -57q0 -50 -28 -92zM561 -452l-108 -109l-110 111l110 109l100 -100l109 108l110 -109l-110 -111z" />
    <glyph glyph-name="uni066E.fina" unicode="&#x66e;" 
d="M1229 123v-123q-103 0 -148 45t-81 165q-18 -70 -89.5 -140t-148.5 -70h-279q-267 0 -356.5 51t-89.5 154q0 109 50 210t75 101q9 0 9 -12q0 -9 -13 -34q-47 -91 -47 -151q0 -196 362 -196h279q86 0 137 42t51 98q0 132 -66 264l82 144q64 -148 64.5 -252t24.5 -168.5
t70 -96t114 -31.5z" />
    <glyph glyph-name="uni066F.init" unicode="&#x66f;" 
d="M0 0v123h856q110 0 168.5 11.5t85 50.5t26.5 103q0 23 -7 63q-91 -53 -152 -53q-60 0 -114.5 25.5t-54.5 66.5q0 125 61 268t148 143q90 0 140 -125.5t50 -305.5q0 -133 -31 -213t-76 -111.5t-92 -38.5t-226 -7h-782zM1096 467q-42 209 -109 209q-48 0 -80.5 -66.5
t-32.5 -130.5q0 -55 97 -55q39 0 125 43z" />
    <glyph glyph-name="uni066F.fina" unicode="&#x66f;" 
d="M1229 0h-82q0 -175 -139 -266t-375 -91q-419 0 -419 333q0 94 39.5 202t64.5 108q13 0 13 -16q0 -8 -8 -30q-50 -110 -50 -196q0 -127 95 -197t251 -70q363 0 465 125q5 18 5 38q0 29 -12 60h-42q-261 0 -261 105q0 112 63 286.5t139 174.5q77 0 123.5 -149t47.5 -294h82
v-123zM1056 123q-2 112 -29 207t-72 95q-40 0 -68.5 -88.5t-28.5 -157.5q0 -56 175 -56h23z" />
    <glyph glyph-name="uni0671" unicode="&#x671;" arabic-form="isolated" 
d="M552 59q0 240 -20 513q-20 287 -20 423l104 166l-3 -155q0 -167 5 -306q8 -218 8 -306q0 -293 -74 -335zM493 1389q102 134 139.5 153.5t65.5 19.5q24 0 40 -28.5t16 -65.5q0 -62 -24.5 -101t-73.5 -49.5t-215 -10.5q-32 0 -46 -32q-22 -52 -26 -52q-15 0 -15 47
q0 45 21 74.5t40 37.5t78 7zM532 1388h111q76 0 76 38q0 56 -54 56q-21 0 -67.5 -33t-65.5 -61z" />
    <glyph glyph-name="uni0672.fina" unicode="&#x672;" 
d="M1229 0h-402q-86 0 -137.5 6t-75.5 17t-49 71.5t-25 159.5q0 70 5 200t5 207q0 263 -46 383l82 107q42 -120 42 -380v-2l-1 -58l-2 -115q-1 -30 -6 -138q-5 -98 -5 -151q0 -86 23 -135t92 -49h500v-123zM739 1341l-188 -81q-70 -30 -86 -30q-10 0 -28.5 23.5t-29.5 23.5
q-25 0 -79 -47l12 43q54 74 82 74q18 0 43 -26.5t36 -26.5q24 0 62 49q-98 6 -98 90q0 56 36 110q40 60 93 60q80 0 80 -73q0 -24 -12 -48q-73 53 -105 53q-51 0 -51 -43q0 -37 55 -70q50 -30 90 -30q36 0 88 22v-73z" />
    <glyph glyph-name="uni0673.fina" unicode="&#x673;" 
d="M1229 0h-402q-86 0 -137.5 6t-75.5 17t-49 71.5t-25 159.5q0 70 5 200t5 207q0 263 -46 383l82 107q42 -120 42 -380v-2l-1 -58l-2 -115q-1 -30 -6 -138q-5 -98 -5 -151q0 -86 23 -135t92 -49h500v-123zM786 -372l-188 -81q-70 -30 -86 -30q-10 0 -28.5 23.5t-29.5 23.5
q-25 0 -79 -47l12 43q54 74 82 74q18 0 43 -26.5t36 -26.5q24 0 62 49q-98 6 -98 90q0 56 36 110q40 60 93 60q80 0 80 -73q0 -24 -12 -48q-73 53 -105 53q-51 0 -51 -43q0 -37 55 -70q50 -30 90 -30q36 0 88 22v-73z" />
    <glyph glyph-name="uni0675.fina" unicode="&#x675;" 
d="M1229 0h-402q-86 0 -137.5 6t-75.5 17t-49 71.5t-25 159.5q0 70 5 200t5 207q0 263 -46 383l82 107q42 -120 42 -380v-2l-1 -58l-2 -115q-1 -30 -6 -138q-5 -98 -5 -151q0 -86 23 -135t92 -49h500v-123zM779 930l8 43q47 33 76 70q-98 6 -98 90q0 58 39 114t90 56
q80 0 80 -73q0 -24 -12 -48q-73 53 -105 53q-51 0 -51 -43q0 -36 52.5 -68t92.5 -32q36 0 88 22v-73z" />
    <glyph glyph-name="uni0676.fina" unicode="&#x676;" 
d="M1229 123v-123h-307q-13 -158 -123.5 -284t-243.5 -126q-76 0 -219.5 30t-143.5 65q0 16 15 16q22 0 87 -12q57 -12 90 -12q88 0 219.5 52t175 92t64.5 71.5t21 110.5q-14 0 -43 -2q-30 -3 -64 -3q-109 0 -156 24.5t-47 103.5q0 106 65 272t139 166q151 0 168 -441h303z
M843 126q0 82 -27.5 189.5t-68.5 107.5q-40 0 -71.5 -85t-31.5 -144q0 -34 18.5 -53.5t98.5 -19.5q15 0 41 2q25 3 41 3zM844 677l8 43q47 33 76 70q-98 6 -98 90q0 58 39 114t90 56q80 0 80 -73q0 -24 -12 -48q-73 53 -105 53q-51 0 -51 -43q0 -36 52.5 -68t92.5 -32
q36 0 88 22v-73z" />
    <glyph glyph-name="uni0677" unicode="&#x677;" arabic-form="isolated" 
d="M869 9q-59 -11 -108 -11q-139 0 -171 37t-32 91q0 106 65 272t139 166q83 0 126.5 -147t43.5 -349q0 -184 -112.5 -331t-260.5 -147q-76 0 -219.5 30t-143.5 65q0 16 16 16q33 0 85 -12t91 -12q103 0 241 60t192.5 125.5t47.5 146.5zM847 135q0 81 -27.5 184.5
t-68.5 103.5q-40 0 -71.5 -85t-31.5 -144q0 -34 18.5 -53.5t98.5 -19.5q54 0 82 14zM844 677l8 43q47 33 76 70q-98 6 -98 90q0 58 39 114t90 56q80 0 80 -73q0 -24 -12 -48q-73 53 -105 53q-51 0 -51 -43q0 -36 52.5 -68t92.5 -32q36 0 88 22v-73zM319 667v13
q142 64 197 143q-62 39 -62 88q0 45 44 107.5t83 62.5q23 0 39 -29.5t16 -64.5q0 -51 -32 -115q49 -24 49 -51v-51q-18 0 -54 15q-44 20 -51 22q-119 -148 -198 -148q-17 0 -31 8zM573 888q17 29 17 61q0 62 -42 62q-39 0 -39 -50q0 -61 64 -73z" />
    <glyph glyph-name="uni0678.fina" unicode="&#x678;" 
d="M1229 0q-44 0 -107 4q-64 4 -140 4q-225 0 -225 -69q0 -16 70 -31q138 -29 169 -54.5t31 -54.5q0 -158 -161.5 -259t-374.5 -101q-199 0 -289 84.5t-90 254.5q0 91 47 207t84 116q18 0 18 -20q0 -16 -22 -54q-51 -91 -51 -177q0 -266 340 -266q125 0 264 34t139 83
q0 50 -126 79q-125 29 -125 70q0 132 81.5 202.5t229.5 70.5h238v-123zM959 313l8 43q47 33 76 70q-98 6 -98 90q0 58 39 114t90 56q80 0 80 -73q0 -24 -12 -48q-73 53 -105 53q-51 0 -51 -43q0 -36 52.5 -68t92.5 -32q36 0 88 22v-73z" />
    <glyph glyph-name="uni0679" unicode="&#x679;" arabic-form="isolated" 
d="M1001 8q-70 -8 -253 -8h-265q-267 0 -356.5 51t-89.5 154q0 109 50 210t75 101q9 0 9 -12q0 -9 -13 -34q-47 -91 -47 -151q0 -196 362 -196h401q51 0 111 19.5t89.5 40.5t29.5 44q0 165 -103 283l66 172q117 -195 117 -340q0 -227 -183 -334zM839 792q0 -81 -57 -111
q-41 -22 -131 -22h-230q-53 0 -74 52h121q55 46 55 123q0 220 -25 262l31 52l40 -41q-19 -20 -19 -121q0 -23 2 -68t2 -68q0 -19 -17 -93l76 84q68 78 133 78q93 0 93 -127zM805 771q0 37 -20 65q-23 31 -58 31q-53 0 -140 -96q-42 -46 -61 -60h211q68 0 68 60z" />
    <glyph glyph-name="uni067A" unicode="&#x67a;" arabic-form="isolated" 
d="M1001 8q-70 -8 -253 -8h-265q-267 0 -356.5 51t-89.5 154q0 109 50 210t75 101q9 0 9 -12q0 -9 -13 -34q-47 -91 -47 -151q0 -196 362 -196h401q51 0 111 19.5t89.5 40.5t29.5 44q0 165 -103 283l66 172q117 -195 117 -340q0 -227 -183 -334zM728 769l-111 -110l-109 110
l99 100l-107 109l109 110l111 -110l-102 -101z" />
    <glyph glyph-name="uni067B" unicode="&#x67b;" arabic-form="isolated" 
d="M1001 8q-70 -8 -253 -8h-265q-267 0 -356.5 51t-89.5 154q0 109 50 210t75 101q9 0 9 -12q0 -9 -13 -34q-47 -91 -47 -151q0 -196 362 -196h401q51 0 111 19.5t89.5 40.5t29.5 44q0 165 -103 283l66 172q117 -195 117 -340q0 -227 -183 -334zM728 -450l-111 -110
l-109 110l99 100l-107 109l109 110l111 -110l-102 -101z" />
    <glyph glyph-name="uni067C.init" unicode="&#x67c;" 
d="M0 0v123h885q71 0 146.5 32t75.5 65q0 178 -104 292l68 170q116 -174 116 -366q0 -102 -65 -209t-158 -107h-964zM990 976l-108 -109l-110 111l110 109l100 -100l109 108l110 -109l-110 -111zM1065 -65q0 -66 -52 -108t-104 -42q-43 0 -68.5 34t-25.5 85q0 67 35 119.5
t98 52.5q56 0 86.5 -42.5t30.5 -98.5zM852 -65q0 -50 86 -50q73 0 73 27q0 19 -36 53.5t-72 34.5q-51 0 -51 -65z" />
    <glyph glyph-name="uni067C.medi" unicode="&#x67c;" 
d="M1229 0h-76q-108 0 -180.5 12t-122 65.5t-86.5 135.5q-21 -72 -90 -142.5t-133 -70.5h-541v123h526q64 0 121 39.5t57 107.5q0 107 -64 259l83 144q63 -172 63 -268q0 -127 69 -204.5t192 -77.5h182v-123zM621 957l-108 -109l-110 111l110 109l100 -100l109 108l110 -109
l-110 -111zM685 -65q0 -66 -52 -108t-104 -42q-43 0 -68.5 34t-25.5 85q0 67 35 119.5t98 52.5q56 0 86.5 -42.5t30.5 -98.5zM472 -65q0 -50 86 -50q73 0 73 27q0 19 -36 53.5t-72 34.5q-51 0 -51 -65z" />
    <glyph glyph-name="uni067C.fina" unicode="&#x67c;" 
d="M1229 123v-123q-103 0 -148 45t-81 165q-18 -70 -89.5 -140t-148.5 -70h-279q-267 0 -356.5 51t-89.5 154q0 109 50 210t75 101q9 0 9 -12q0 -9 -13 -34q-47 -91 -47 -151q0 -196 362 -196h279q86 0 137 42t51 98q0 132 -66 264l82 144q64 -148 64.5 -252t24.5 -168.5
t70 -96t114 -31.5zM587 783l-108 -109l-110 111l110 109l100 -100l109 108l110 -109l-110 -111zM685 -65q0 -66 -52 -108t-104 -42q-43 0 -68.5 34t-25.5 85q0 67 35 119.5t98 52.5q56 0 86.5 -42.5t30.5 -98.5zM472 -65q0 -50 86 -50q73 0 73 27q0 19 -36 53.5t-72 34.5
q-51 0 -51 -65z" />
    <glyph glyph-name="uni067D.init" unicode="&#x67d;" 
d="M0 0v123h885q71 0 146.5 32t75.5 65q0 178 -104 292l68 170q116 -174 116 -366q0 -102 -65 -209t-158 -107h-964zM997 1186l-108 -110l-110 111l110 109l100 -99l109 107l110 -109l-110 -111zM1103 984l-110 -110l-110 110l110 109z" />
    <glyph glyph-name="uni067D.medi" unicode="&#x67d;" 
d="M1229 0h-76q-108 0 -180.5 12t-122 65.5t-86.5 135.5q-21 -72 -90 -142.5t-133 -70.5h-541v123h526q64 0 121 39.5t57 107.5q0 107 -64 259l83 144q63 -172 63 -268q0 -127 69 -204.5t192 -77.5h182v-123zM637 1186l-108 -110l-110 111l110 109l100 -99l109 107l110 -109
l-110 -111zM743 984l-110 -110l-110 110l110 109z" />
    <glyph glyph-name="uni067D.fina" unicode="&#x67d;" 
d="M1229 123v-123q-103 0 -148 45t-81 165q-18 -70 -89.5 -140t-148.5 -70h-279q-267 0 -356.5 51t-89.5 154q0 109 50 210t75 101q9 0 9 -12q0 -9 -13 -34q-47 -91 -47 -151q0 -196 362 -196h279q86 0 137 42t51 98q0 132 -66 264l82 144q64 -148 64.5 -252t24.5 -168.5
t70 -96t114 -31.5zM562 970l-108 -110l-110 111l110 109l100 -99l109 107l110 -109l-110 -111zM668 768l-110 -110l-110 110l110 109z" />
    <glyph glyph-name="uni067E" unicode="&#x67e;" arabic-form="isolated" 
d="M1001 8q-70 -8 -253 -8h-265q-267 0 -356.5 51t-89.5 154q0 109 50 210t75 101q9 0 9 -12q0 -9 -13 -34q-47 -91 -47 -151q0 -196 362 -196h401q51 0 111 19.5t89.5 40.5t29.5 44q0 165 -103 283l66 172q117 -195 117 -340q0 -227 -183 -334zM697 -249l-108 -110
l-110 111l110 109l100 -99l109 107l110 -109l-110 -111zM803 -451l-110 -110l-110 110l110 109z" />
    <glyph glyph-name="uni067F" unicode="&#x67f;" arabic-form="isolated" 
d="M1001 8q-70 -8 -253 -8h-265q-267 0 -356.5 51t-89.5 154q0 109 50 210t75 101q9 0 9 -12q0 -9 -13 -34q-47 -91 -47 -151q0 -196 362 -196h401q51 0 111 19.5t89.5 40.5t29.5 44q0 165 -103 283l66 172q117 -195 117 -340q0 -227 -183 -334zM834 777l-110 -111l-101 102
l-108 -110l-110 111l96 96l-105 106l110 109l100 -99l109 107l110 -109l-97 -97zM710 873l-96 97l-95 -96l96 -95z" />
    <glyph glyph-name="uni0680" unicode="&#x680;" arabic-form="isolated" 
d="M1001 8q-70 -8 -253 -8h-265q-267 0 -356.5 51t-89.5 154q0 109 50 210t75 101q9 0 9 -12q0 -9 -13 -34q-47 -91 -47 -151q0 -196 362 -196h401q51 0 111 19.5t89.5 40.5t29.5 44q0 165 -103 283l66 172q117 -195 117 -340q0 -227 -183 -334zM834 -442l-110 -111
l-101 102l-108 -110l-110 111l96 96l-105 106l110 109l100 -99l109 107l110 -109l-97 -97zM710 -346l-96 97l-95 -96l96 -95z" />
    <glyph glyph-name="uni0681.init" unicode="&#x681;" 
d="M1199 402l-51 -126q-153 0 -217.5 -7.5t-132 -39.5t-150.5 -92q-111 -80 -180 -108.5t-222 -28.5h-246v123h353q81 0 263 110q204 124 269 141q-246 167 -320 167q-76 0 -121 -67q-9 -13 -21 -13q-9 0 -9 18q0 54 56.5 114.5t141.5 60.5q70 0 166 -66l165 -111
q48 -32 116.5 -53.5t139.5 -21.5zM739 800l8 43q47 33 76 70q-98 6 -98 90q0 58 39 114t90 56q80 0 80 -73q0 -24 -12 -48q-73 53 -105 53q-51 0 -51 -43q0 -36 52.5 -68t92.5 -32q36 0 88 22v-73z" />
    <glyph glyph-name="uni0681.medi" unicode="&#x681;" 
d="M1229 0h-338q-83 0 -113 44.5t-30 139.5q0 62 19 138q-63 -22 -257 -182q-170 -140 -262 -140h-248v123h236q75 0 209 87q207 134 294 176q-256 156 -354 156q-60 0 -99 -40q-40 -40 -43 -40q-8 0 -8 16q0 64 56.5 124t141.5 60q76 0 267 -107q190 -107 335 -107
l-58 -121q-38 9 -79 9q-36 0 -69 -5q-7 -54 -7 -86q0 -55 22 -88.5t127 -33.5h258v-123zM599 800l8 43q47 33 76 70q-98 6 -98 90q0 58 39 114t90 56q80 0 80 -73q0 -24 -12 -48q-73 53 -105 53q-51 0 -51 -43q0 -36 52.5 -68t92.5 -32q36 0 88 22v-73z" />
    <glyph glyph-name="uni0681.fina" unicode="&#x681;" 
d="M1229 0h-338q-84 0 -116 48q-26 39 -26 128q0 70 17 146q-153 -35 -312 -158q-195 -155 -195 -313q0 -139 149 -220q122 -61 297 -61q99 0 232 38q23 6 151 47q0 -72 -178 -153q-146 -63 -232 -63q-224 0 -365 106q-155 117 -155 273q0 201 242 391q156 118 339 176
q-76 51 -188 104t-163 53q-66 0 -102.5 -39.5t-41.5 -39.5q-9 0 -9 20q0 70 64 126q62 53 133 53q73 0 174 -55l155 -84q137 -74 275 -74l-59 -123q-54 9 -99 9q-26 0 -49 -3q-8 -34 -8 -89q0 -120 127 -120h281v-123zM579 800l8 43q47 33 76 70q-98 6 -98 90q0 58 39 114
t90 56q80 0 80 -73q0 -24 -12 -48q-73 53 -105 53q-51 0 -51 -43q0 -36 52.5 -68t92.5 -32q36 0 88 22v-73z" />
    <glyph glyph-name="uni0682.init" unicode="&#x682;" 
d="M1199 402l-51 -126q-153 0 -217.5 -7.5t-132 -39.5t-150.5 -92q-111 -80 -180 -108.5t-222 -28.5h-246v123h353q81 0 263 110q204 124 269 141q-246 167 -320 167q-76 0 -121 -67q-9 -13 -21 -13q-9 0 -9 18q0 54 56.5 114.5t141.5 60.5q70 0 166 -66l165 -111
q48 -32 116.5 -53.5t139.5 -21.5zM928 910l-111 -110l-109 110l99 100l-107 109l109 110l111 -110l-102 -101z" />
    <glyph glyph-name="uni0682.medi" unicode="&#x682;" 
d="M1229 0h-338q-83 0 -113 44.5t-30 139.5q0 62 19 138q-63 -22 -257 -182q-170 -140 -262 -140h-248v123h236q75 0 209 87q207 134 294 176q-256 156 -354 156q-60 0 -99 -40q-40 -40 -43 -40q-8 0 -8 16q0 64 56.5 124t141.5 60q76 0 267 -107q190 -107 335 -107
l-58 -121q-38 9 -79 9q-36 0 -69 -5q-7 -54 -7 -86q0 -55 22 -88.5t127 -33.5h258v-123zM828 910l-111 -110l-109 110l99 100l-107 109l109 110l111 -110l-102 -101z" />
    <glyph glyph-name="uni0682.fina" unicode="&#x682;" 
d="M1229 0h-338q-84 0 -116 48q-26 39 -26 128q0 70 17 146q-153 -35 -312 -158q-195 -155 -195 -313q0 -139 149 -220q122 -61 297 -61q99 0 232 38q23 6 151 47q0 -72 -178 -153q-146 -63 -232 -63q-224 0 -365 106q-155 117 -155 273q0 201 242 391q156 118 339 176
q-76 51 -188 104t-163 53q-66 0 -102.5 -39.5t-41.5 -39.5q-9 0 -9 20q0 70 64 126q62 53 133 53q73 0 174 -55l155 -84q137 -74 275 -74l-59 -123q-54 9 -99 9q-26 0 -49 -3q-8 -34 -8 -89q0 -120 127 -120h281v-123zM828 910l-111 -110l-109 110l99 100l-107 109l109 110
l111 -110l-102 -101z" />
    <glyph glyph-name="uni0683" unicode="&#x683;" arabic-form="isolated" 
d="M1211 -340q0 -78 -167 -161q-145 -60 -236 -60q-234 0 -380 115q-156 123 -156 304q0 167 164 320q138 114 314 154q-25 6 -89 35q-52 24 -87 24q-161 0 -222 -68q-21 -24 -31 -24q-9 0 -9 24q0 93 103 158q91 57 188 57q28 0 193.5 -66.5t266.5 -66.5l-44 -131
q-220 0 -409 -99q-226 -119 -226 -294q0 -149 147 -244q136 -67 271 -67q123 0 257.5 45t151.5 45zM802 -96l-108 -109l-110 111l110 109l100 -100l109 108l110 -109l-110 -111z" />
    <glyph glyph-name="uni0684" unicode="&#x684;" arabic-form="isolated" 
d="M1211 -340q0 -78 -167 -161q-145 -60 -236 -60q-234 0 -380 115q-156 123 -156 304q0 167 164 320q138 114 314 154q-25 6 -89 35q-52 24 -87 24q-161 0 -222 -68q-21 -24 -31 -24q-9 0 -9 24q0 93 103 158q91 57 188 57q28 0 193.5 -66.5t266.5 -66.5l-44 -131
q-220 0 -409 -99q-226 -119 -226 -294q0 -149 147 -244q136 -67 271 -67q123 0 257.5 45t151.5 45zM908 -210l-111 -110l-109 110l99 100l-107 109l109 110l111 -110l-102 -101z" />
    <glyph glyph-name="uni0685.init" unicode="&#x685;" 
d="M1199 402l-51 -126q-153 0 -217.5 -7.5t-132 -39.5t-150.5 -92q-111 -80 -180 -108.5t-222 -28.5h-246v123h353q81 0 263 110q204 124 269 141q-246 167 -320 167q-76 0 -121 -67q-9 -13 -21 -13q-9 0 -9 18q0 54 56.5 114.5t141.5 60.5q70 0 166 -66l165 -111
q48 -32 116.5 -53.5t139.5 -21.5zM945 1122l-110 -110l-110 110l110 109zM839 909l-108 -109l-110 111l110 109l100 -100l109 108l110 -109l-110 -111z" />
    <glyph glyph-name="uni0685.medi" unicode="&#x685;" 
d="M1229 0h-338q-83 0 -113 44.5t-30 139.5q0 62 19 138q-63 -22 -257 -182q-170 -140 -262 -140h-248v123h236q75 0 209 87q207 134 294 176q-256 156 -354 156q-60 0 -99 -40q-40 -40 -43 -40q-8 0 -8 16q0 64 56.5 124t141.5 60q76 0 267 -107q190 -107 335 -107
l-58 -121q-38 9 -79 9q-36 0 -69 -5q-7 -54 -7 -86q0 -55 22 -88.5t127 -33.5h258v-123zM845 1114l-110 -110l-110 110l110 109zM739 901l-108 -109l-110 111l110 109l100 -100l109 108l110 -109l-110 -111z" />
    <glyph glyph-name="uni0685.fina" unicode="&#x685;" 
d="M1229 0h-338q-84 0 -116 48q-26 39 -26 128q0 70 17 146q-153 -35 -312 -158q-195 -155 -195 -313q0 -139 149 -220q122 -61 297 -61q99 0 232 38q23 6 151 47q0 -72 -178 -153q-146 -63 -232 -63q-224 0 -365 106q-155 117 -155 273q0 201 242 391q156 118 339 176
q-76 51 -188 104t-163 53q-66 0 -102.5 -39.5t-41.5 -39.5q-9 0 -9 20q0 70 64 126q62 53 133 53q73 0 174 -55l155 -84q137 -74 275 -74l-59 -123q-54 9 -99 9q-26 0 -49 -3q-8 -34 -8 -89q0 -120 127 -120h281v-123zM845 1122l-110 -110l-110 110l110 109zM739 909
l-108 -109l-110 111l110 109l100 -100l109 108l110 -109l-110 -111z" />
    <glyph glyph-name="uni0686" unicode="&#x686;" arabic-form="isolated" 
d="M1211 -340q0 -78 -167 -161q-145 -60 -236 -60q-234 0 -380 115q-156 123 -156 304q0 167 164 320q138 114 314 154q-25 6 -89 35q-52 24 -87 24q-161 0 -222 -68q-21 -24 -31 -24q-9 0 -9 24q0 93 103 158q91 57 188 57q28 0 193.5 -66.5t266.5 -66.5l-44 -131
q-220 0 -409 -99q-226 -119 -226 -294q0 -149 147 -244q136 -67 271 -67q123 0 257.5 45t151.5 45zM812 -9l-108 -110l-110 111l110 109l100 -99l109 107l110 -109l-110 -111zM918 -211l-110 -110l-110 110l110 109z" />
    <glyph glyph-name="uni0687" unicode="&#x687;" arabic-form="isolated" 
d="M1211 -340q0 -78 -167 -161q-145 -60 -236 -60q-234 0 -380 115q-156 123 -156 304q0 167 164 320q138 114 314 154q-25 6 -89 35q-52 24 -87 24q-161 0 -222 -68q-21 -24 -31 -24q-9 0 -9 24q0 93 103 158q91 57 188 57q28 0 193.5 -66.5t266.5 -66.5l-44 -131
q-220 0 -409 -99q-226 -119 -226 -294q0 -149 147 -244q136 -67 271 -67q123 0 257.5 45t151.5 45zM1034 -202l-110 -111l-101 102l-108 -110l-110 111l96 96l-105 106l110 109l100 -99l109 107l110 -109l-97 -97zM910 -106l-96 97l-95 -96l96 -95z" />
    <glyph glyph-name="uni0688" unicode="&#x688;" arabic-form="isolated" 
d="M661 672l14 141q90 -15 210 -171t120 -349q0 -305 -361 -305q-112 0 -171 30.5t-59 118.5q0 34 11 78.5t26 44.5q12 0 13 -19q1 -36 4 -52t31.5 -32.5t79 -25t123.5 -8.5q97 0 174 27t77 76q0 168 -103.5 300t-188.5 146zM939 1117q0 -81 -57 -111q-41 -22 -131 -22h-230
q-53 0 -74 52h121q55 46 55 123q0 220 -25 262l31 52l40 -41q-19 -20 -19 -121q0 -23 2 -68t2 -68q0 -19 -17 -93l76 84q68 78 133 78q93 0 93 -127zM905 1096q0 37 -20 65q-23 31 -58 31q-53 0 -140 -96q-42 -46 -61 -60h211q68 0 68 60z" />
    <glyph glyph-name="uni0689.fina" unicode="&#x689;" 
d="M884 315q26 -129 77.5 -160.5t162.5 -31.5h105v-123h-109q-154 0 -212 47.5t-85 150.5q-94 -158 -256 -158q-134 0 -182 37.5t-48 111.5q0 37 11.5 80t25.5 43q13 0 13 -32q0 -60 40.5 -82.5t155.5 -22.5q75 0 147 32.5t72 85.5q0 182 -51 436l83 121q50 -299 50 -535z
M765 -25q0 -66 -52 -108t-104 -42q-43 0 -68.5 34t-25.5 85q0 67 35 119.5t98 52.5q56 0 86.5 -42.5t30.5 -98.5zM552 -25q0 -50 86 -50q73 0 73 27q0 19 -36 53.5t-72 34.5q-51 0 -51 -65z" />
    <glyph glyph-name="uni068A.fina" unicode="&#x68a;" 
d="M884 315q26 -129 77.5 -160.5t162.5 -31.5h105v-123h-109q-154 0 -212 47.5t-85 150.5q-94 -158 -256 -158q-134 0 -182 37.5t-48 111.5q0 37 11.5 80t25.5 43q13 0 13 -32q0 -60 40.5 -82.5t155.5 -22.5q75 0 147 32.5t72 85.5q0 182 -51 436l83 121q50 -299 50 -535z
M757 -299l-109 -110l-111 110l111 109z" />
    <glyph glyph-name="uni068B.fina" unicode="&#x68b;" 
d="M884 315q26 -129 77.5 -160.5t162.5 -31.5h105v-123h-109q-154 0 -212 47.5t-85 150.5q-94 -158 -256 -158q-134 0 -182 37.5t-48 111.5q0 37 11.5 80t25.5 43q13 0 13 -32q0 -60 40.5 -82.5t155.5 -22.5q75 0 147 32.5t72 85.5q0 182 -51 436l83 121q50 -299 50 -535z
M999 1117q0 -81 -57 -111q-41 -22 -131 -22h-230q-53 0 -74 52h121q55 46 55 123q0 220 -25 262l31 52l40 -41q-19 -20 -19 -121q0 -23 2 -68t2 -68q0 -19 -17 -93l76 84q68 78 133 78q93 0 93 -127zM965 1096q0 37 -20 65q-23 31 -58 31q-53 0 -140 -96q-42 -46 -61 -60
h211q68 0 68 60zM757 -299l-109 -110l-111 110l111 109z" />
    <glyph glyph-name="uni068C" unicode="&#x68c;" arabic-form="isolated" 
d="M661 672l14 141q90 -15 210 -171t120 -349q0 -305 -361 -305q-112 0 -171 30.5t-59 118.5q0 34 11 78.5t26 44.5q12 0 13 -19q1 -36 4 -52t31.5 -32.5t79 -25t123.5 -8.5q97 0 174 27t77 76q0 168 -103.5 300t-188.5 146zM638 1093l-108 -109l-110 111l110 109l100 -100
l109 108l110 -109l-110 -111z" />
    <glyph glyph-name="uni068D" unicode="&#x68d;" arabic-form="isolated" 
d="M661 672l14 141q90 -15 210 -171t120 -349q0 -305 -361 -305q-112 0 -171 30.5t-59 118.5q0 34 11 78.5t26 44.5q12 0 13 -19q1 -36 4 -52t31.5 -32.5t79 -25t123.5 -8.5q97 0 174 27t77 76q0 168 -103.5 300t-188.5 146zM682 -301l-108 -109l-110 111l110 109l100 -100
l109 108l110 -109l-110 -111z" />
    <glyph glyph-name="uni068E" unicode="&#x68e;" arabic-form="isolated" 
d="M661 672l14 141q90 -15 210 -171t120 -349q0 -305 -361 -305q-112 0 -171 30.5t-59 118.5q0 34 11 78.5t26 44.5q12 0 13 -19q1 -36 4 -52t31.5 -32.5t79 -25t123.5 -8.5q97 0 174 27t77 76q0 168 -103.5 300t-188.5 146zM744 1306l-110 -110l-110 110l110 109zM638 1093
l-108 -109l-110 111l110 109l100 -100l109 108l110 -109l-110 -111z" />
    <glyph glyph-name="uni068F.fina" unicode="&#x68f;" 
d="M884 315q26 -129 77.5 -160.5t162.5 -31.5h105v-123h-109q-154 0 -212 47.5t-85 150.5q-94 -158 -256 -158q-134 0 -182 37.5t-48 111.5q0 37 11.5 80t25.5 43q13 0 13 -32q0 -60 40.5 -82.5t155.5 -22.5q75 0 147 32.5t72 85.5q0 182 -51 436l83 121q50 -299 50 -535z
M757 1296l-108 -110l-110 111l110 109l100 -99l109 107l110 -109l-110 -111zM863 1094l-110 -110l-110 110l110 109z" />
    <glyph glyph-name="uni0690.fina" unicode="&#x690;" 
d="M884 315q26 -129 77.5 -160.5t162.5 -31.5h105v-123h-109q-154 0 -212 47.5t-85 150.5q-94 -158 -256 -158q-134 0 -182 37.5t-48 111.5q0 37 11.5 80t25.5 43q13 0 13 -32q0 -60 40.5 -82.5t155.5 -22.5q75 0 147 32.5t72 85.5q0 182 -51 436l83 121q50 -299 50 -535z
M973 1103l-110 -111l-101 102l-108 -110l-110 111l96 96l-105 106l110 109l100 -99l109 107l110 -109l-97 -97zM849 1199l-96 97l-95 -96l96 -95z" />
    <glyph glyph-name="uni0691" unicode="&#x691;" arabic-form="isolated" 
d="M727 494l63 170q168 -157 168 -486q0 -149 -58.5 -286t-160 -224.5t-192.5 -87.5q-106 0 -170 19l-185 55q-48 14 -48 41t25 27q7 0 88 -16q81 -15 169 -15q100 0 218.5 80.5t187.5 178t69 150.5q0 214 -174 394zM939 957q0 -81 -57 -111q-41 -22 -131 -22h-230
q-53 0 -74 52h121q55 46 55 123q0 220 -25 262l31 52l40 -41q-19 -20 -19 -121q0 -23 2 -68t2 -68q0 -19 -17 -93l76 84q68 78 133 78q93 0 93 -127zM905 936q0 37 -20 65q-23 31 -58 31q-53 0 -140 -96q-42 -46 -61 -60h211q68 0 68 60z" />
    <glyph glyph-name="uni0692.fina" unicode="&#x692;" 
d="M1113 0q-80 0 -124.5 26.5t-76.5 95.5q-17 -233 -150 -388.5t-258 -155.5q-106 0 -170 19l-185 55q-48 14 -48 41q0 26 25 26q7 0 88 -15t169 -15q100 0 219 81t187 179t68 151q0 78 -17.5 163t-106.5 239l63 170q78 -121 110 -366q37 -183 207 -183h116v-123h-116z
M881 1086q0 -11 -15 -34l-152 -228l-152 228q-15 23 -15 34q0 27 25 27q18 0 35 -26l107 -160l107 160q17 26 35 26q25 0 25 -27z" />
    <glyph glyph-name="uni0693.fina" unicode="&#x693;" 
d="M1113 0q-80 0 -124.5 26.5t-76.5 95.5q-17 -233 -150 -388.5t-258 -155.5q-106 0 -170 19l-185 55q-48 14 -48 41q0 26 25 26q7 0 88 -15t169 -15q100 0 219 81t187 179t68 151q0 78 -17.5 163t-106.5 239l63 170q78 -121 110 -366q37 -183 207 -183h116v-123h-116z
M1000 -270q0 -66 -52 -108t-104 -42q-43 0 -68.5 34t-25.5 85q0 67 35 119.5t98 52.5q56 0 86.5 -42.5t30.5 -98.5zM787 -270q0 -50 86 -50q73 0 73 27q0 19 -36 53.5t-72 34.5q-51 0 -51 -65z" />
    <glyph glyph-name="uni0694.fina" unicode="&#x694;" 
d="M1113 0q-80 0 -124.5 26.5t-76.5 95.5q-17 -233 -150 -388.5t-258 -155.5q-106 0 -170 19l-185 55q-48 14 -48 41q0 26 25 26q7 0 88 -15t169 -15q100 0 219 81t187 179t68 151q0 78 -17.5 163t-106.5 239l63 170q78 -121 110 -366q37 -183 207 -183h116v-123h-116z
M1103 -310l-109 -110l-111 110l111 109z" />
    <glyph glyph-name="uni0695.fina" unicode="&#x695;" 
d="M1113 0q-80 0 -124.5 26.5t-76.5 95.5q-17 -233 -150 -388.5t-258 -155.5q-106 0 -170 19l-185 55q-48 14 -48 41q0 26 25 26q7 0 88 -15t169 -15q100 0 219 81t187 179t68 151q0 78 -17.5 163t-106.5 239l63 170q78 -121 110 -366q37 -183 207 -183h116v-123h-116z
M1146 -299q0 -11 -15 -34l-152 -228l-152 228q-15 23 -15 34q0 27 25 27q18 0 35 -26l107 -160l107 160q17 26 35 26q25 0 25 -27z" />
    <glyph glyph-name="uni0696.fina" unicode="&#x696;" 
d="M1113 0q-80 0 -124.5 26.5t-76.5 95.5q-17 -233 -150 -388.5t-258 -155.5q-106 0 -170 19l-185 55q-48 14 -48 41q0 26 25 26q7 0 88 -15t169 -15q100 0 219 81t187 179t68 151q0 78 -17.5 163t-106.5 239l63 170q78 -121 110 -366q37 -183 207 -183h116v-123h-116z
M1103 -310l-109 -110l-111 110l111 109zM657 -10l-109 -110l-111 110l111 109z" />
    <glyph glyph-name="uni0697.fina" unicode="&#x697;" 
d="M1113 0q-80 0 -124.5 26.5t-76.5 95.5q-17 -233 -150 -388.5t-258 -155.5q-106 0 -170 19l-185 55q-48 14 -48 41q0 26 25 26q7 0 88 -15t169 -15q100 0 219 81t187 179t68 151q0 78 -17.5 163t-106.5 239l63 170q78 -121 110 -366q37 -183 207 -183h116v-123h-116z
M708 947l-108 -109l-110 111l110 109l100 -100l109 108l110 -109l-110 -111z" />
    <glyph glyph-name="uni0698" unicode="&#x698;" arabic-form="isolated" 
d="M727 494l63 170q168 -157 168 -486q0 -149 -58.5 -286t-160 -224.5t-192.5 -87.5q-106 0 -170 19l-185 55q-48 14 -48 41t25 27q7 0 88 -16q81 -15 169 -15q100 0 218.5 80.5t187.5 178t69 150.5q0 214 -174 394zM832 1146l-110 -110l-110 110l110 109zM726 933
l-108 -109l-110 111l110 109l100 -100l109 108l110 -109l-110 -111z" />
    <glyph glyph-name="uni0699.fina" unicode="&#x699;" 
d="M1113 0q-80 0 -124.5 26.5t-76.5 95.5q-17 -233 -150 -388.5t-258 -155.5q-106 0 -170 19l-185 55q-48 14 -48 41q0 26 25 26q7 0 88 -15t169 -15q100 0 219 81t187 179t68 151q0 78 -17.5 163t-106.5 239l63 170q78 -121 110 -366q37 -183 207 -183h116v-123h-116z
M919 957l-110 -111l-101 102l-108 -110l-110 111l96 96l-105 106l110 109l100 -99l109 107l110 -109l-97 -97zM795 1053l-96 97l-95 -96l96 -95z" />
    <glyph glyph-name="uni069A.init" unicode="&#x69a;" 
d="M768 72q-69 -72 -139 -72q-125 0 -162 90q-86 -90 -180 -90h-287v123h287q40 0 72.5 32t48.5 71t61 156q35 91 70 91q21 0 21 -29q0 -17 -29 -101q-28 -85 -28 -131q0 -91 117 -91q42 0 71 49t61 218q16 86 49 86q24 0 24 -45q0 -25 -9 -88t-9 -95q0 -125 126 -125
q123 0 123 106q0 139 -74 316l93 129q25 -41 42.5 -147t17.5 -185q0 -340 -245 -340q-85 0 -122 72zM864 844l-109 -110l-111 110l111 109zM857 -321l-109 -110l-111 110l111 109z" />
    <glyph glyph-name="uni069A.medi" unicode="&#x69a;" 
d="M971 660q55 -86 55 -320q29 -217 203 -217v-123q-100 0 -142 35.5t-80 160.5q-41 -196 -227 -196q-85 0 -122 72q-69 -72 -139 -72q-125 0 -162 90q-86 -90 -180 -90h-177v123h177q40 0 73 32t54 83.5t57 143.5q34 91 68 91q21 0 21 -29q0 -17 -29 -101q-28 -85 -28 -131
q0 -91 117 -91q32 0 58 31t41 79t38 176q12 67 44 67q24 0 24 -45q0 -25 -9 -88t-9 -95q0 -125 126 -125q123 0 123 106q0 194 -53 320q41 50 78 113zM797 844l-109 -110l-111 110l111 109zM757 -321l-109 -110l-111 110l111 109z" />
    <glyph glyph-name="uni069A.fina" unicode="&#x69a;" 
d="M1229 123v-123q-34 0 -72 40.5t-46 101.5q-36 -84 -82 -110.5t-122 -26.5q-88 0 -123 68q-47 -72 -108 -72q-45 0 -87 34q-8 -189 -94.5 -297.5t-239.5 -108.5q-113 0 -181 71t-68 337q0 147 87 311.5t140 164.5q11 0 11 -13q-111 -217 -133 -315.5t-22 -168.5
q0 -116 49.5 -186.5t138.5 -70.5q242 0 242 239q0 161 -54 284q16 80 41 242q37 -46 61.5 -161.5t24.5 -210.5q34 -28 73 -28q36 0 62.5 33.5t40 89t32.5 143.5q20 93 49 93q27 0 27 -49q0 -29 -10 -86q-11 -58 -11 -87q0 -134 110 -134q58 0 80.5 19t22.5 86q0 108 -59 310
l92 129q44 -170 44.5 -309t26 -189t57.5 -50zM792 855l-109 -110l-111 110l111 109zM957 -321l-109 -110l-111 110l111 109z" />
    <glyph glyph-name="uni069B.init" unicode="&#x69b;" 
d="M768 72q-69 -72 -139 -72q-125 0 -162 90q-86 -90 -180 -90h-287v123h287q40 0 72.5 32t48.5 71t61 156q35 91 70 91q21 0 21 -29q0 -17 -29 -101q-28 -85 -28 -131q0 -91 117 -91q42 0 71 49t61 218q16 86 49 86q24 0 24 -45q0 -25 -9 -88t-9 -95q0 -125 126 -125
q123 0 123 106q0 139 -74 316l93 129q25 -41 42.5 -147t17.5 -185q0 -340 -245 -340q-85 0 -122 72zM757 -249l-108 -110l-110 111l110 109l100 -99l109 107l110 -109l-110 -111zM863 -451l-110 -110l-110 110l110 109z" />
    <glyph glyph-name="uni069B.medi" unicode="&#x69b;" 
d="M971 660q55 -86 55 -320q29 -217 203 -217v-123q-100 0 -142 35.5t-80 160.5q-41 -196 -227 -196q-85 0 -122 72q-69 -72 -139 -72q-125 0 -162 90q-86 -90 -180 -90h-177v123h177q40 0 73 32t54 83.5t57 143.5q34 91 68 91q21 0 21 -29q0 -17 -29 -101q-28 -85 -28 -131
q0 -91 117 -91q32 0 58 31t41 79t38 176q12 67 44 67q24 0 24 -45q0 -25 -9 -88t-9 -95q0 -125 126 -125q123 0 123 106q0 194 -53 320q41 50 78 113zM697 -249l-108 -110l-110 111l110 109l100 -99l109 107l110 -109l-110 -111zM803 -451l-110 -110l-110 110l110 109z" />
    <glyph glyph-name="uni069B.fina" unicode="&#x69b;" 
d="M1229 123v-123q-34 0 -72 40.5t-46 101.5q-36 -84 -82 -110.5t-122 -26.5q-88 0 -123 68q-47 -72 -108 -72q-45 0 -87 34q-8 -189 -94.5 -297.5t-239.5 -108.5q-113 0 -181 71t-68 337q0 147 87 311.5t140 164.5q11 0 11 -13q-111 -217 -133 -315.5t-22 -168.5
q0 -116 49.5 -186.5t138.5 -70.5q242 0 242 239q0 161 -54 284q16 80 41 242q37 -46 61.5 -161.5t24.5 -210.5q34 -28 73 -28q36 0 62.5 33.5t40 89t32.5 143.5q20 93 49 93q27 0 27 -49q0 -29 -10 -86q-11 -58 -11 -87q0 -134 110 -134q58 0 80.5 19t22.5 86q0 108 -59 310
l92 129q44 -170 44.5 -309t26 -189t57.5 -50zM857 -249l-108 -110l-110 111l110 109l100 -99l109 107l110 -109l-110 -111zM963 -451l-110 -110l-110 110l110 109z" />
    <glyph glyph-name="uni069C.init" unicode="&#x69c;" 
d="M768 72q-69 -72 -139 -72q-125 0 -162 90q-86 -90 -180 -90h-287v123h287q40 0 72.5 32t48.5 71t61 156q35 91 70 91q21 0 21 -29q0 -17 -29 -101q-28 -85 -28 -131q0 -91 117 -91q42 0 71 49t61 218q16 86 49 86q24 0 24 -45q0 -25 -9 -88t-9 -95q0 -125 126 -125
q123 0 123 106q0 139 -74 316l93 129q25 -41 42.5 -147t17.5 -185q0 -340 -245 -340q-85 0 -122 72zM757 -249l-108 -110l-110 111l110 109l100 -99l109 107l110 -109l-110 -111zM863 -451l-110 -110l-110 110l110 109zM861 1056l-110 -110l-110 110l110 109zM755 843
l-108 -109l-110 111l110 109l100 -100l109 108l110 -109l-110 -111z" />
    <glyph glyph-name="uni069C.medi" unicode="&#x69c;" 
d="M971 660q55 -86 55 -320q29 -217 203 -217v-123q-100 0 -142 35.5t-80 160.5q-41 -196 -227 -196q-85 0 -122 72q-69 -72 -139 -72q-125 0 -162 90q-86 -90 -180 -90h-177v123h177q40 0 73 32t54 83.5t57 143.5q34 91 68 91q21 0 21 -29q0 -17 -29 -101q-28 -85 -28 -131
q0 -91 117 -91q32 0 58 31t41 79t38 176q12 67 44 67q24 0 24 -45q0 -25 -9 -88t-9 -95q0 -125 126 -125q123 0 123 106q0 194 -53 320q41 50 78 113zM697 -249l-108 -110l-110 111l110 109l100 -99l109 107l110 -109l-110 -111zM803 -451l-110 -110l-110 110l110 109z
M773 1055l-110 -110l-110 110l110 109zM667 842l-108 -109l-110 111l110 109l100 -100l109 108l110 -109l-110 -111z" />
    <glyph glyph-name="uni069C.fina" unicode="&#x69c;" 
d="M1229 123v-123q-34 0 -72 40.5t-46 101.5q-36 -84 -82 -110.5t-122 -26.5q-88 0 -123 68q-47 -72 -108 -72q-45 0 -87 34q-8 -189 -94.5 -297.5t-239.5 -108.5q-113 0 -181 71t-68 337q0 147 87 311.5t140 164.5q11 0 11 -13q-111 -217 -133 -315.5t-22 -168.5
q0 -116 49.5 -186.5t138.5 -70.5q242 0 242 239q0 161 -54 284q16 80 41 242q37 -46 61.5 -161.5t24.5 -210.5q34 -28 73 -28q36 0 62.5 33.5t40 89t32.5 143.5q20 93 49 93q27 0 27 -49q0 -29 -10 -86q-11 -58 -11 -87q0 -134 110 -134q58 0 80.5 19t22.5 86q0 108 -59 310
l92 129q44 -170 44.5 -309t26 -189t57.5 -50zM857 -249l-108 -110l-110 111l110 109l100 -99l109 107l110 -109l-110 -111zM963 -451l-110 -110l-110 110l110 109zM789 1067l-110 -110l-110 110l110 109zM683 854l-108 -109l-110 111l110 109l100 -100l109 108l110 -109
l-110 -111z" />
    <glyph glyph-name="uni069D.init" unicode="&#x69d;" 
d="M355 90q-51 -55 -105.5 -72.5t-178.5 -17.5h-71v123h140q40 0 71.5 18t53.5 51t60 139q27 73 55 73q19 0 19 -24q0 -23 -10 -68q-9 -46 -9 -69q0 -115 159 -120q178 325 271.5 410t177.5 85q186 0 186 -302q0 -120 -54.5 -193.5t-164.5 -99t-322 -25.5q-241 0 -278 92z
M611 121h323q162 0 162 155q0 83 -41.5 148t-108.5 65q-36 0 -71.5 -19t-71.5 -56.5t-56 -70.5zM822 -323l-108 -109l-110 111l110 109l100 -100l109 108l110 -109l-110 -111z" />
    <glyph glyph-name="uni069D.medi" unicode="&#x69d;" 
d="M1138 149q31 -26 91 -26v-123q-81 0 -128 94q-96 -96 -468 -96q-241 0 -278 92q-51 -55 -105.5 -72.5t-178.5 -17.5h-71v123h140q40 0 71.5 18t53.5 51t60 139q27 73 55 73q19 0 19 -24q0 -23 -10 -68q-9 -46 -9 -69q0 -115 159 -120q178 325 271.5 410t177.5 85
q186 0 186 -302q0 -98 -36 -167zM611 121h323q162 0 162 155q0 83 -41.5 148t-108.5 65q-36 0 -71.5 -19t-71.5 -56.5t-56 -70.5zM822 -323l-108 -109l-110 111l110 109l100 -100l109 108l110 -109l-110 -111z" />
    <glyph glyph-name="uni069D.fina" unicode="&#x69d;" 
d="M1180 129q13 -6 49 -6v-123q-81 0 -99 69q-24 -35 -84 -53.5t-229 -18.5q-212 0 -254 35q-6 -194 -87.5 -306t-228.5 -112q-88 0 -145 37t-79.5 111t-22.5 269q0 159 84 319.5t133 160.5q8 0 8 -12q0 2 -3 -5q-32 -72 -87 -215.5t-55 -260.5q0 -272 174 -272
q240 0 240 253q0 152 -55 279q26 113 42 243q20 -22 52.5 -145t32.5 -246q18 -7 71 -7q184 501 379 501q192 0 192 -353q0 -80 -28 -142zM707 121h327q97 0 97 120q0 87 -49 169t-121 82q-30 0 -60 -21t-58.5 -63t-43.5 -76zM862 -323l-108 -109l-110 111l110 109l100 -100
l109 108l110 -109l-110 -111z" />
    <glyph glyph-name="uni069E.init" unicode="&#x69e;" 
d="M355 90q-51 -55 -105.5 -72.5t-178.5 -17.5h-71v123h140q40 0 71.5 18t53.5 51t60 139q27 73 55 73q19 0 19 -24q0 -23 -10 -68q-9 -46 -9 -69q0 -115 159 -120q178 325 271.5 410t177.5 85q186 0 186 -302q0 -120 -54.5 -193.5t-164.5 -99t-322 -25.5q-241 0 -278 92z
M611 121h323q162 0 162 155q0 83 -41.5 148t-108.5 65q-36 0 -71.5 -19t-71.5 -56.5t-56 -70.5zM904 1082l-110 -110l-110 110l110 109zM798 869l-108 -109l-110 111l110 109l100 -100l109 108l110 -109l-110 -111z" />
    <glyph glyph-name="uni069E.medi" unicode="&#x69e;" 
d="M1138 149q31 -26 91 -26v-123q-81 0 -128 94q-96 -96 -468 -96q-241 0 -278 92q-51 -55 -105.5 -72.5t-178.5 -17.5h-71v123h140q40 0 71.5 18t53.5 51t60 139q27 73 55 73q19 0 19 -24q0 -23 -10 -68q-9 -46 -9 -69q0 -115 159 -120q178 325 271.5 410t177.5 85
q186 0 186 -302q0 -98 -36 -167zM611 121h323q162 0 162 155q0 83 -41.5 148t-108.5 65q-36 0 -71.5 -19t-71.5 -56.5t-56 -70.5zM904 1082l-110 -110l-110 110l110 109zM798 869l-108 -109l-110 111l110 109l100 -100l109 108l110 -109l-110 -111z" />
    <glyph glyph-name="uni069E.fina" unicode="&#x69e;" 
d="M1180 129q13 -6 49 -6v-123q-81 0 -99 69q-24 -35 -84 -53.5t-229 -18.5q-212 0 -254 35q-6 -194 -87.5 -306t-228.5 -112q-88 0 -145 37t-79.5 111t-22.5 269q0 159 84 319.5t133 160.5q8 0 8 -12q0 2 -3 -5q-32 -72 -87 -215.5t-55 -260.5q0 -272 174 -272
q240 0 240 253q0 152 -55 279q26 113 42 243q20 -22 52.5 -145t32.5 -246q18 -7 71 -7q184 501 379 501q192 0 192 -353q0 -80 -28 -142zM707 121h327q97 0 97 120q0 87 -49 169t-121 82q-30 0 -60 -21t-58.5 -63t-43.5 -76zM994 1082l-110 -110l-110 110l110 109zM888 869
l-108 -109l-110 111l110 109l100 -100l109 108l110 -109l-110 -111z" />
    <glyph glyph-name="uni069F.fina" unicode="&#x69f;" 
d="M1139 149q25 -26 90 -26v-123q-83 0 -129 95q-95 -95 -369 -95h-564q-117 0 -157 123h290q127 106 127 289q0 521 -59 619l75 122l94 -96q-45 -48 -45 -285q0 -68 5 -181q4 -113 4 -140q0 -46 -40 -220l180 204q81 93 161 139.5t152 46.5q104 0 162 -88.5t58 -218.5
q0 -99 -35 -165zM436 123h496q91 0 126 33t35 108q0 90 -51 158t-132 68q-58 0 -125.5 -37.5t-204.5 -189.5q-97 -106 -144 -140zM994 1081l-110 -110l-110 110l110 109zM888 868l-108 -109l-110 111l110 109l100 -100l109 108l110 -109l-110 -111z" />
    <glyph glyph-name="uni06A0.init" unicode="&#x6a0;" 
d="M938 295l-18 -132l-355 -102q-109 -31 -204.5 -46t-179.5 -15h-181v122h122q179 0 245 8t110 39q-42 12 -103 66t-61 90q0 104 78.5 231.5t243.5 127.5q125 0 185.5 -80.5t60.5 -112.5q0 -18 -14 -18q-7 0 -40 24q-114 80 -209 80q-79 0 -151.5 -40.5t-72.5 -103.5
q0 -90 83.5 -144.5t202.5 -54.5q27 0 67.5 6t190.5 55zM734 1181l-110 -110l-110 110l110 109zM628 968l-108 -109l-110 111l110 109l100 -100l109 108l110 -109l-110 -111z" />
    <glyph glyph-name="uni06A0.medi" unicode="&#x6a0;" 
d="M1229 0h-177q-217 0 -321 263q-70 -37 -146 -106q-103 -92 -161.5 -124.5t-162.5 -32.5h-261v123h272q88 0 144.5 27.5t182.5 126.5q49 39 89 63q-92 106 -200 114l60 146q118 38 212 38q243 0 243 -147q0 -114 -199 -192q65 -111 122.5 -143.5t153.5 -32.5h149v-123z
M587 520q123 -64 173 -141q131 46 131 100q0 75 -136 75q-55 0 -168 -34zM894 1181l-110 -110l-110 110l110 109zM788 968l-108 -109l-110 111l110 109l100 -100l109 108l110 -109l-110 -111z" />
    <glyph glyph-name="uni06A0.fina" unicode="&#x6a0;" 
d="M1229 -332q0 -94 -188 -168q-156 -61 -268 -61q-191 0 -330 96q-159 111 -159 327q0 134 119 275q117 117 283 203q-27 46 -85.5 78t-113.5 36l60 146q125 38 213 38q244 0 244 -149q0 -118 -198 -188q51 -93 108 -133q64 -45 163 -45h152v-123h-177q-123 0 -203 74
q-66 61 -117 189q-144 -80 -247 -168q-113 -117 -113 -236q0 -130 149 -212q125 -68 269 -68q230 0 439 89zM574 514q116 -33 186 -133q131 47 131 98q0 75 -136 75q-71 0 -181 -40zM894 1181l-110 -110l-110 110l110 109zM788 968l-108 -109l-110 111l110 109l100 -100
l109 108l110 -109l-110 -111z" />
    <glyph glyph-name="uni06A2.init" unicode="&#x6a2;" 
d="M0 0v123h856q110 0 168.5 11.5t85 50.5t26.5 103q0 23 -7 63q-91 -53 -152 -53q-60 0 -114.5 25.5t-54.5 66.5q0 125 61 268t148 143q90 0 140 -125.5t50 -305.5q0 -133 -31 -213t-76 -111.5t-92 -38.5t-226 -7h-782zM1096 467q-42 209 -109 209q-48 0 -80.5 -66.5
t-32.5 -130.5q0 -55 97 -55q39 0 125 43zM1081 -321l-109 -110l-111 110l111 109z" />
    <glyph glyph-name="uni06A2.medi" unicode="&#x6a2;" 
d="M629 123q249 0 318 50q-134 129 -134 243q0 69 85 181t159 112q49 0 81.5 -59t32.5 -121q0 -228 -86 -336q52 -70 144 -70v-123q-116 0 -211 113q-115 -113 -427 -113h-591v123h629zM1080 486q0 40 -22 71t-55 31q-34 0 -72 -41.5t-38 -78.5q0 -41 38 -106.5t81 -108.5
q68 81 68 233zM1075 -321l-109 -110l-111 110l111 109z" />
    <glyph glyph-name="uni06A2.fina" unicode="&#x6a2;" 
d="M1229 0q-133 0 -200 56q-98 -71 -220 -97.5t-354 -26.5q-170 0 -264 17.5t-139.5 66.5t-45.5 130q0 76 45 187.5t77 111.5q11 0 11 -20q0 -7 -28 -71q-27 -64 -27 -109q0 -75 61.5 -129t335.5 -54q234 0 325 9t141 41q-134 129 -134 243q0 70 89.5 181.5t154.5 111.5
q46 0 79 -52t33 -107q0 -234 -73 -332q36 -34 133 -34v-123zM1081 425q0 39 -22.5 70t-55.5 31q-36 0 -72.5 -41.5t-36.5 -77.5q0 -41 38 -106.5t81 -108.5q68 81 68 233zM1108 -321l-109 -110l-111 110l111 109z" />
    <glyph glyph-name="uni06A3.init" unicode="&#x6a3;" 
d="M0 0v123h856q110 0 168.5 11.5t85 50.5t26.5 103q0 23 -7 63q-91 -53 -152 -53q-60 0 -114.5 25.5t-54.5 66.5q0 125 61 268t148 143q90 0 140 -125.5t50 -305.5q0 -133 -31 -213t-76 -111.5t-92 -38.5t-226 -7h-782zM1096 467q-42 209 -109 209q-48 0 -80.5 -66.5
t-32.5 -130.5q0 -55 97 -55q39 0 125 43zM1081 1074l-109 -110l-111 110l111 109zM1081 -321l-109 -110l-111 110l111 109z" />
    <glyph glyph-name="uni06A3.medi" unicode="&#x6a3;" 
d="M629 123q249 0 318 50q-134 129 -134 243q0 69 85 181t159 112q49 0 81.5 -59t32.5 -121q0 -228 -86 -336q52 -70 144 -70v-123q-116 0 -211 113q-115 -113 -427 -113h-591v123h629zM1080 486q0 40 -22 71t-55 31q-34 0 -72 -41.5t-38 -78.5q0 -41 38 -106.5t81 -108.5
q68 81 68 233zM1075 985l-109 -110l-111 110l111 109zM1075 -321l-109 -110l-111 110l111 109z" />
    <glyph glyph-name="uni06A3.fina" unicode="&#x6a3;" 
d="M1229 0q-133 0 -200 56q-98 -71 -220 -97.5t-354 -26.5q-170 0 -264 17.5t-139.5 66.5t-45.5 130q0 76 45 187.5t77 111.5q11 0 11 -20q0 -7 -28 -71q-27 -64 -27 -109q0 -75 61.5 -129t335.5 -54q234 0 325 9t141 41q-134 129 -134 243q0 70 89.5 181.5t154.5 111.5
q46 0 79 -52t33 -107q0 -234 -73 -332q36 -34 133 -34v-123zM1081 425q0 39 -22.5 70t-55.5 31q-36 0 -72.5 -41.5t-36.5 -77.5q0 -41 38 -106.5t81 -108.5q68 81 68 233zM1108 945l-109 -110l-111 110l111 109zM1108 -320l-109 -110l-111 110l111 109z" />
    <glyph glyph-name="uni06A4" unicode="&#x6a4;" arabic-form="isolated" 
d="M1129 351q-75 -53 -152 -53q-70 0 -119.5 24t-49.5 68q0 125 61 268t148 143t139.5 -134t52.5 -277t-32 -233t-110.5 -127t-326.5 -37h-270q-289 0 -374 56t-85 159q0 85 44.5 191.5t85.5 106.5q12 0 12 -18q0 -16 -31 -81q-31 -64 -31 -101q0 -93 86 -141.5t356 -48.5
h171q315 0 373.5 47.5t58.5 124.5q0 23 -7 63zM1096 467q-42 209 -109 209q-48 0 -80.5 -66.5t-32.5 -130.5q0 -55 91 -55q45 0 131 43zM1074 1290l-110 -110l-110 110l110 109zM968 1077l-108 -109l-110 111l110 109l100 -100l109 108l110 -109l-110 -111z" />
    <glyph glyph-name="uni06A5.init" unicode="&#x6a5;" 
d="M0 0v123h856q110 0 168.5 11.5t85 50.5t26.5 103q0 23 -7 63q-91 -53 -152 -53q-60 0 -114.5 25.5t-54.5 66.5q0 125 61 268t148 143q90 0 140 -125.5t50 -305.5q0 -133 -31 -213t-76 -111.5t-92 -38.5t-226 -7h-782zM1096 467q-42 209 -109 209q-48 0 -80.5 -66.5
t-32.5 -130.5q0 -55 97 -55q39 0 125 43zM957 -249l-108 -110l-110 111l110 109l100 -99l109 107l110 -109l-110 -111zM1063 -451l-110 -110l-110 110l110 109z" />
    <glyph glyph-name="uni06A5.medi" unicode="&#x6a5;" 
d="M629 123q249 0 318 50q-134 129 -134 243q0 69 85 181t159 112q49 0 81.5 -59t32.5 -121q0 -228 -86 -336q52 -70 144 -70v-123q-116 0 -211 113q-115 -113 -427 -113h-591v123h629zM1080 486q0 40 -22 71t-55 31q-34 0 -72 -41.5t-38 -78.5q0 -41 38 -106.5t81 -108.5
q68 81 68 233zM957 -249l-108 -110l-110 111l110 109l100 -99l109 107l110 -109l-110 -111zM1063 -451l-110 -110l-110 110l110 109z" />
    <glyph glyph-name="uni06A5.fina" unicode="&#x6a5;" 
d="M1229 0q-133 0 -200 56q-98 -71 -220 -97.5t-354 -26.5q-170 0 -264 17.5t-139.5 66.5t-45.5 130q0 76 45 187.5t77 111.5q11 0 11 -20q0 -7 -28 -71q-27 -64 -27 -109q0 -75 61.5 -129t335.5 -54q234 0 325 9t141 41q-134 129 -134 243q0 70 89.5 181.5t154.5 111.5
q46 0 79 -52t33 -107q0 -234 -73 -332q36 -34 133 -34v-123zM1081 425q0 39 -22.5 70t-55.5 31q-36 0 -72.5 -41.5t-36.5 -77.5q0 -41 38 -106.5t81 -108.5q68 81 68 233zM957 -249l-108 -110l-110 111l110 109l100 -99l109 107l110 -109l-110 -111zM1063 -451l-110 -110
l-110 110l110 109z" />
    <glyph glyph-name="uni06A6" unicode="&#x6a6;" arabic-form="isolated" 
d="M1129 351q-75 -53 -152 -53q-70 0 -119.5 24t-49.5 68q0 125 61 268t148 143t139.5 -134t52.5 -277t-32 -233t-110.5 -127t-326.5 -37h-270q-289 0 -374 56t-85 159q0 85 44.5 191.5t85.5 106.5q12 0 12 -18q0 -16 -31 -81q-31 -64 -31 -101q0 -93 86 -141.5t356 -48.5
h171q315 0 373.5 47.5t58.5 124.5q0 23 -7 63zM1096 467q-42 209 -109 209q-48 0 -80.5 -66.5t-32.5 -130.5q0 -55 91 -55q45 0 131 43zM1179 1087l-110 -111l-101 102l-108 -110l-110 111l96 96l-105 106l110 109l100 -99l109 107l110 -109l-97 -97zM1055 1183l-96 97
l-95 -96l96 -95z" />
    <glyph glyph-name="uni06A7.fina" unicode="&#x6a7;" 
d="M1229 0h-82q0 -175 -139 -266t-375 -91q-419 0 -419 333q0 94 39.5 202t64.5 108q13 0 13 -16q0 -8 -8 -30q-50 -110 -50 -196q0 -127 95 -197t251 -70q363 0 465 125q5 18 5 38q0 29 -12 60h-42q-261 0 -261 105q0 112 63 286.5t139 174.5q77 0 123.5 -149t47.5 -294h82
v-123zM1056 123q-2 112 -29 207t-72 95q-40 0 -68.5 -88.5t-28.5 -157.5q0 -56 175 -56h23zM1045 823l-109 -110l-111 110l111 109z" />
    <glyph glyph-name="uni06A8.fina" unicode="&#x6a8;" 
d="M1229 0h-82q0 -175 -139 -266t-375 -91q-419 0 -419 333q0 94 39.5 202t64.5 108q13 0 13 -16q0 -8 -8 -30q-50 -110 -50 -196q0 -127 95 -197t251 -70q363 0 465 125q5 18 5 38q0 29 -12 60h-42q-261 0 -261 105q0 112 63 286.5t139 174.5q77 0 123.5 -149t47.5 -294h82
v-123zM1056 123q-2 112 -29 207t-72 95q-40 0 -68.5 -88.5t-28.5 -157.5q0 -56 175 -56h23zM1034 1081l-110 -110l-110 110l110 109zM928 868l-108 -109l-110 111l110 109l100 -100l109 108l110 -109l-110 -111z" />
    <glyph glyph-name="uni06A9" unicode="&#x6a9;" arabic-form="isolated" 
d="M1229 1154l-51 -121l-258 -126q-131 -64 -176 -94t-45 -57q0 -22 165 -174q90 -83 137 -132t59 -76.5t19 -66.5t7 -84q0 -81 -8 -119t-34 -67t-141.5 -39.5t-319.5 -10.5q-425 0 -502.5 58t-77.5 158q0 83 49 191t84 108q7 0 7 -6q0 -7 -33 -79t-33 -116q0 -80 44 -122
t137.5 -55t320.5 -13q153 1 276.5 6t145.5 23t22 61q0 93 -276 337q-134 119 -140 135t-6 61q0 79 97.5 168t530.5 252z" />
    <glyph glyph-name="uni06AA.init" unicode="&#x6aa;" 
d="M469 123q510 0 607 27q57 16 57 63q0 46 -151 46q-63 0 -281 -16q-270 -20 -378 -20q-68 0 -84 7q-61 24 -61 119q0 140 333 358l-17 -123l-120 -90q-66 -54 -106 -111q-12 -17 -12 -35q0 -16 8 -17q17 -2 51 -2q55 0 398 21q197 12 283 12q112 0 144 -15q56 -26 56 -102
q0 -114 -38 -162q-66 -83 -685 -83h-473v123h469z" />
    <glyph glyph-name="uni06AA.medi" unicode="&#x6aa;" 
d="M1229 0h-14q-68 0 -120 49q-155 -49 -622 -49h-473v123h469q510 0 607 27q57 16 57 63q0 46 -151 46q-60 0 -281 -16q-277 -20 -378 -20q-66 0 -84 7q-61 24 -61 119q0 140 333 358l-17 -123l-120 -90q-66 -54 -106 -111q-12 -17 -12 -35q0 -16 8 -17q14 -2 51 -2
q62 0 398 21q192 12 283 12q112 0 144 -15q56 -26 56 -102q0 -70 -16 -118q17 -4 34 -4h15v-123z" />
    <glyph glyph-name="uni06AA.fina" unicode="&#x6aa;" 
d="M1229 0h-14q-68 0 -120 49q-187 -59 -622 -59q-172 0 -346 10l-122 127l7 11q191 -31 457 -31q452 0 607 43q57 16 57 63q0 46 -151 46q-60 0 -281 -16q-277 -20 -378 -20q-66 0 -84 7q-61 24 -61 119q0 140 333 358l-17 -123l-120 -90q-66 -54 -106 -111
q-12 -17 -12 -35q0 -16 8 -17q14 -2 51 -2q62 0 398 21q192 12 283 12q112 0 144 -15q56 -26 56 -102q0 -70 -16 -118q17 -4 34 -4h15v-123z" />
    <glyph glyph-name="uni06AB.init" unicode="&#x6ab;" 
d="M1229 1160l-49 -118l-276 -135q-207 -101 -207 -141q0 -36 157 -177q160 -143 193.5 -197.5t33.5 -163.5q0 -152 -47.5 -189.5t-180.5 -38.5h-853v123h415h270q130 0 219 6.5t102 17.5t13 41q0 107 -243 323l-29 26q-132 118 -141.5 133.5t-9.5 47.5q0 45 27.5 97.5
t64.5 84t174 102.5t367 158zM1155 877q0 -66 -52 -108t-104 -42q-43 0 -68.5 34t-25.5 85q0 67 35 119.5t98 52.5q56 0 86.5 -42.5t30.5 -98.5zM942 877q0 -50 86 -50q73 0 73 27q0 19 -36 53.5t-72 34.5q-51 0 -51 -65z" />
    <glyph glyph-name="uni06AB.medi" unicode="&#x6ab;" 
d="M650 123q24 0 57.5 26.5t33.5 67.5q0 91 -227 292l-48 43q-109 98 -120.5 114t-11.5 51q0 44 27.5 97t64.5 84.5t174.5 102.5t366.5 158l-49 -118l-276 -135q-207 -101 -207 -141q0 -32 87 -115q200 -191 253 -273q12 -18 84.5 -112.5t119 -118t92.5 -23.5h158v-123h-29
q-118 0 -190.5 17.5t-129 62.5t-97.5 119q-46 -199 -240 -199h-543v123h650zM895 877q0 -66 -52 -108t-104 -42q-43 0 -68.5 34t-25.5 85q0 67 35 119.5t98 52.5q56 0 86.5 -42.5t30.5 -98.5zM682 877q0 -50 86 -50q73 0 73 27q0 19 -36 53.5t-72 34.5q-51 0 -51 -65z" />
    <glyph glyph-name="uni06AC.init" unicode="&#x6ac;" 
d="M1229 1160l-49 -118l-276 -135q-207 -101 -207 -141q0 -36 157 -177q160 -143 193.5 -197.5t33.5 -163.5q0 -152 -47.5 -189.5t-180.5 -38.5h-853v123h415h270q130 0 219 6.5t102 17.5t13 41q0 107 -243 323l-29 26q-132 118 -141.5 133.5t-9.5 47.5q0 45 27.5 97.5
t64.5 84t174 102.5t367 158zM1017 1240l-109 -110l-111 110l111 109z" />
    <glyph glyph-name="uni06AC.medi" unicode="&#x6ac;" 
d="M650 123q24 0 57.5 26.5t33.5 67.5q0 91 -227 292l-48 43q-109 98 -120.5 114t-11.5 51q0 44 27.5 97t64.5 84.5t174.5 102.5t366.5 158l-49 -118l-276 -135q-207 -101 -207 -141q0 -32 87 -115q200 -191 253 -273q12 -18 84.5 -112.5t119 -118t92.5 -23.5h158v-123h-29
q-118 0 -190.5 17.5t-129 62.5t-97.5 119q-46 -199 -240 -199h-543v123h650zM757 1240l-109 -110l-111 110l111 109z" />
    <glyph glyph-name="uni06AC.fina" unicode="&#x6ac;" 
d="M1039 1069q-33 -60 -33 -170q0 -47 15 -252q15 -206 15 -315q1 -84 45 -146.5t115 -62.5h33v-123q-76 0 -117.5 23.5t-91.5 141.5q-21 -81 -86.5 -127t-157.5 -58t-266 -12q-286 0 -370 58.5t-84 166.5q0 50 13.5 103.5t32.5 53.5q13 0 13 -19l-3 -47q0 -88 82.5 -136
t373.5 -48q113 0 194 10.5t131 30.5t61.5 41.5t11.5 65.5q0 146 -27 420l-30 301q-3 27 -39 67q25 41 66 120q26 -30 103 -87zM296 460q11 16 114 40q95 23 95 44q0 20 -73 28q-74 8 -74 52q0 54 43.5 130.5t80.5 76.5q36 0 36 -25q0 -40 -22 -68q-15 15 -40 15
q-19 0 -36 -19t-17 -39q0 -29 80 -39q80 -11 80 -67q0 -41 -23 -79.5t-43.5 -54.5t-67.5 -16q-132 0 -133 21zM847 1240l-109 -110l-111 110l111 109z" />
    <glyph glyph-name="uni06AD" unicode="&#x6ad;" arabic-form="isolated" 
d="M1040 1057l66 121q21 -27 103 -88q-33 -61 -33 -170q0 -47 16 -266t16 -328q0 -118 -35.5 -194t-120.5 -113t-372 -37q-306 0 -403 58t-97 166q0 51 13.5 104t32.5 53q14 0 14 -18q0 -6 -3 -18t-3 -22q0 -97 102 -144t333 -47h69q400 0 400 141q0 139 -28 420l-32 315
q-3 34 -38 67zM466 481q11 15 113 40q96 23 96 44q0 20 -74 28q-73 8 -73 52q0 54 43.5 130.5t80.5 76.5q35 0 35 -26q0 -40 -21 -67q-16 15 -40 15q-20 0 -36.5 -18.5t-16.5 -38.5q0 -29 79 -40q80 -11 80 -67q0 -41 -23.5 -80t-43.5 -54t-66 -15q-132 0 -133 20zM894 1452
l-110 -110l-110 110l110 109zM788 1239l-108 -109l-110 111l110 109l100 -100l109 108l110 -109l-110 -111z" />
    <glyph glyph-name="uni06AE.init" unicode="&#x6ae;" 
d="M1229 1160l-49 -118l-276 -135q-207 -101 -207 -141q0 -36 157 -177q160 -143 193.5 -197.5t33.5 -163.5q0 -152 -47.5 -189.5t-180.5 -38.5h-853v123h415h270q130 0 219 6.5t102 17.5t13 41q0 107 -243 323l-29 26q-132 118 -141.5 133.5t-9.5 47.5q0 45 27.5 97.5
t64.5 84t174 102.5t367 158zM697 -249l-108 -110l-110 111l110 109l100 -99l109 107l110 -109l-110 -111zM803 -451l-110 -110l-110 110l110 109z" />
    <glyph glyph-name="uni06AE.medi" unicode="&#x6ae;" 
d="M650 123q24 0 57.5 26.5t33.5 67.5q0 91 -227 292l-48 43q-109 98 -120.5 114t-11.5 51q0 44 27.5 97t64.5 84.5t174.5 102.5t366.5 158l-49 -118l-276 -135q-207 -101 -207 -141q0 -32 87 -115q200 -191 253 -273q12 -18 84.5 -112.5t119 -118t92.5 -23.5h158v-123h-29
q-118 0 -190.5 17.5t-129 62.5t-97.5 119q-46 -199 -240 -199h-543v123h650zM397 -249l-108 -110l-110 111l110 109l100 -99l109 107l110 -109l-110 -111zM503 -451l-110 -110l-110 110l110 109z" />
    <glyph glyph-name="uni06AE.fina" unicode="&#x6ae;" 
d="M1039 1069q-33 -60 -33 -170q0 -47 15 -252q15 -206 15 -315q1 -84 45 -146.5t115 -62.5h33v-123q-76 0 -117.5 23.5t-91.5 141.5q-21 -81 -86.5 -127t-157.5 -58t-266 -12q-286 0 -370 58.5t-84 166.5q0 50 13.5 103.5t32.5 53.5q13 0 13 -19l-3 -47q0 -88 82.5 -136
t373.5 -48q113 0 194 10.5t131 30.5t61.5 41.5t11.5 65.5q0 146 -27 420l-30 301q-3 27 -39 67q25 41 66 120q26 -30 103 -87zM296 460q11 16 114 40q95 23 95 44q0 20 -73 28q-74 8 -74 52q0 54 43.5 130.5t80.5 76.5q36 0 36 -25q0 -40 -22 -68q-15 15 -40 15
q-19 0 -36 -19t-17 -39q0 -29 80 -39q80 -11 80 -67q0 -41 -23 -79.5t-43.5 -54.5t-67.5 -16q-132 0 -133 21zM597 -249l-108 -110l-110 111l110 109l100 -99l109 107l110 -109l-110 -111zM703 -451l-110 -110l-110 110l110 109z" />
    <glyph glyph-name="uni06AF" unicode="&#x6af;" arabic-form="isolated" 
d="M1204 1239l-32 -92q-209 -69 -574 -264l23 90q352 180 583 266zM1229 1036l-53 -129l-265 -108q-211 -86 -211 -123q0 -13 48 -40q70 -39 188 -134.5t131.5 -159.5t13.5 -113q0 -80 -7 -117t-33 -67.5t-144.5 -42.5t-329.5 -12q-366 0 -461.5 48.5t-95.5 168.5
q0 83 49 191t84 108q7 0 7 -6q0 -7 -33 -79t-33 -116q0 -80 44 -122.5t131.5 -55t303.5 -12.5q172 0 291.5 6t141.5 24t22 62q0 46 -68 128t-201 150q-111 57 -132 70t-21 59q0 102 93 177.5t540 244.5z" />
    <glyph glyph-name="uni06B0.init" unicode="&#x6b0;" 
d="M1223 1247l-31 -92q-211 -69 -575 -264l24 90q354 181 582 266zM1229 1044l-53 -129l-267 -108q-210 -85 -210 -123q0 -13 48 -39q63 -34 148.5 -102t117.5 -100.5t49 -84t17 -120.5q0 -96 -9.5 -134.5t-39 -59.5t-115.5 -32.5t-231 -11.5h-684v123h643q148 0 239.5 7
t112.5 23t21 54q0 54 -68 137t-200 150q-107 55 -129.5 68t-22.5 61q0 101 92.5 176.5t540.5 244.5zM1155 767q0 -66 -52 -108t-104 -42q-43 0 -68.5 34t-25.5 85q0 67 35 119.5t98 52.5q56 0 86.5 -42.5t30.5 -98.5zM942 767q0 -50 86 -50q73 0 73 27q0 19 -36 53.5
t-72 34.5q-51 0 -51 -65z" />
    <glyph glyph-name="uni06B0.medi" unicode="&#x6b0;" 
d="M937 1252l-31 -92q-211 -70 -575 -264l24 90q355 181 582 266zM0 123h649q24 0 54.5 23t30.5 62q0 55 -82.5 151t-233.5 164q-75 33 -89 48.5t-14 53.5q1 45 28.5 97.5t64.5 84t174 102.5t366 158l-49 -118l-276 -135q-201 -98 -201 -138q0 -12 50 -41q194 -115 302 -258
q126 -169 176 -211.5t120 -42.5h159v-123h-30q-149 0 -217 24t-116 67t-84 108q-46 -199 -240 -199h-542v123zM865 777q0 -66 -52 -108t-104 -42q-43 0 -68.5 34t-25.5 85q0 67 35 119.5t98 52.5q56 0 86.5 -42.5t30.5 -98.5zM652 777q0 -50 86 -50q73 0 73 27
q0 19 -36 53.5t-72 34.5q-51 0 -51 -65z" />
    <glyph glyph-name="uni06B0.fina" unicode="&#x6b0;" 
d="M1026 1255l-32 -92q-202 -67 -576 -267l23 90q362 186 585 269zM1043 1067l-49 -118l-276 -135q-201 -98 -201 -138q0 -12 50 -41q194 -116 302 -258l110 -145q38 -48 69 -69.5t59 -30.5t58 -9h64v-123h-13q-148 0 -223 60t-117 139q-47 -207 -274 -207q-263 0 -372.5 13
t-164.5 61.5t-55 140.5q0 83 49 191t84 108q7 0 7 -6q0 -7 -33 -79t-33 -116q0 -79 43.5 -122t128 -55t304.5 -12q105 0 154 5t82 27t33 60q0 55 -81.5 150.5t-234.5 164.5q-75 33 -88.5 48.5t-14.5 53.5q0 45 27.5 97.5t64.5 84t174.5 102.5t366.5 158zM995 797
q0 -66 -52 -108t-104 -42q-43 0 -68.5 34t-25.5 85q0 67 35 119.5t98 52.5q56 0 86.5 -42.5t30.5 -98.5zM782 797q0 -50 86 -50q73 0 73 27q0 19 -36 53.5t-72 34.5q-51 0 -51 -65z" />
    <glyph glyph-name="uni06B1" unicode="&#x6b1;" arabic-form="isolated" 
d="M1204 1239l-32 -92q-209 -69 -574 -264l23 90q352 180 583 266zM1229 1036l-53 -129l-265 -108q-211 -86 -211 -123q0 -13 48 -40q70 -39 188 -134.5t131.5 -159.5t13.5 -113q0 -80 -7 -117t-33 -67.5t-144.5 -42.5t-329.5 -12q-366 0 -461.5 48.5t-95.5 168.5
q0 83 49 191t84 108q7 0 7 -6q0 -7 -33 -79t-33 -116q0 -80 44 -122.5t131.5 -55t303.5 -12.5q172 0 291.5 6t141.5 24t22 62q0 46 -68 128t-201 150q-111 57 -132 70t-21 59q0 102 93 177.5t540 244.5zM862 1318l-108 -109l-110 111l110 109l100 -100l109 108l110 -109
l-110 -111z" />
    <glyph glyph-name="uni06B2.init" unicode="&#x6b2;" 
d="M1223 1247l-31 -92q-211 -69 -575 -264l24 90q354 181 582 266zM1229 1044l-53 -129l-267 -108q-210 -85 -210 -123q0 -13 48 -39q63 -34 148.5 -102t117.5 -100.5t49 -84t17 -120.5q0 -96 -9.5 -134.5t-39 -59.5t-115.5 -32.5t-231 -11.5h-684v123h643q148 0 239.5 7
t112.5 23t21 54q0 54 -68 137t-200 150q-107 55 -129.5 68t-22.5 61q0 101 92.5 176.5t540.5 244.5zM762 -301l-108 -109l-110 111l110 109l100 -100l109 108l110 -109l-110 -111z" />
    <glyph glyph-name="uni06B2.medi" unicode="&#x6b2;" 
d="M937 1252l-31 -92q-211 -70 -575 -264l24 90q355 181 582 266zM0 123h649q24 0 54.5 23t30.5 62q0 55 -82.5 151t-233.5 164q-75 33 -89 48.5t-14 53.5q1 45 28.5 97.5t64.5 84t174 102.5t366 158l-49 -118l-276 -135q-201 -98 -201 -138q0 -12 50 -41q194 -115 302 -258
q126 -169 176 -211.5t120 -42.5h159v-123h-30q-149 0 -217 24t-116 67t-84 108q-46 -199 -240 -199h-542v123zM502 -301l-108 -109l-110 111l110 109l100 -100l109 108l110 -109l-110 -111z" />
    <glyph glyph-name="uni06B2.fina" unicode="&#x6b2;" 
d="M1026 1255l-32 -92q-202 -67 -576 -267l23 90q362 186 585 269zM1043 1067l-49 -118l-276 -135q-201 -98 -201 -138q0 -12 50 -41q194 -116 302 -258l110 -145q38 -48 69 -69.5t59 -30.5t58 -9h64v-123h-13q-148 0 -223 60t-117 139q-47 -207 -274 -207q-263 0 -372.5 13
t-164.5 61.5t-55 140.5q0 83 49 191t84 108q7 0 7 -6q0 -7 -33 -79t-33 -116q0 -79 43.5 -122t128 -55t304.5 -12q105 0 154 5t82 27t33 60q0 55 -81.5 150.5t-234.5 164.5q-75 33 -88.5 48.5t-14.5 53.5q0 45 27.5 97.5t64.5 84t174.5 102.5t366.5 158zM502 -301l-108 -109
l-110 111l110 109l100 -100l109 108l110 -109l-110 -111z" />
    <glyph glyph-name="uni06B3" unicode="&#x6b3;" arabic-form="isolated" 
d="M1204 1239l-32 -92q-209 -69 -574 -264l23 90q352 180 583 266zM1229 1036l-53 -129l-265 -108q-211 -86 -211 -123q0 -13 48 -40q70 -39 188 -134.5t131.5 -159.5t13.5 -113q0 -80 -7 -117t-33 -67.5t-144.5 -42.5t-329.5 -12q-366 0 -461.5 48.5t-95.5 168.5
q0 83 49 191t84 108q7 0 7 -6q0 -7 -33 -79t-33 -116q0 -80 44 -122.5t131.5 -55t303.5 -12.5q172 0 291.5 6t141.5 24t22 62q0 46 -68 128t-201 150q-111 57 -132 70t-21 59q0 102 93 177.5t540 244.5zM688 -450l-111 -110l-109 110l99 100l-107 109l109 110l111 -110
l-102 -101z" />
    <glyph glyph-name="uni06B4.init" unicode="&#x6b4;" 
d="M1223 1247l-31 -92q-211 -69 -575 -264l24 90q354 181 582 266zM1229 1044l-53 -129l-267 -108q-210 -85 -210 -123q0 -13 48 -39q63 -34 148.5 -102t117.5 -100.5t49 -84t17 -120.5q0 -96 -9.5 -134.5t-39 -59.5t-115.5 -32.5t-231 -11.5h-684v123h643q148 0 239.5 7
t112.5 23t21 54q0 54 -68 137t-200 150q-107 55 -129.5 68t-22.5 61q0 101 92.5 176.5t540.5 244.5zM923 1494l-110 -110l-110 110l110 109zM817 1281l-108 -109l-110 111l110 109l100 -100l109 108l110 -109l-110 -111z" />
    <glyph glyph-name="uni06B4.medi" unicode="&#x6b4;" 
d="M937 1252l-31 -92q-211 -70 -575 -264l24 90q355 181 582 266zM0 123h649q24 0 54.5 23t30.5 62q0 55 -82.5 151t-233.5 164q-75 33 -89 48.5t-14 53.5q1 45 28.5 97.5t64.5 84t174 102.5t366 158l-49 -118l-276 -135q-201 -98 -201 -138q0 -12 50 -41q194 -115 302 -258
q126 -169 176 -211.5t120 -42.5h159v-123h-30q-149 0 -217 24t-116 67t-84 108q-46 -199 -240 -199h-542v123zM634 1494l-110 -110l-110 110l110 109zM528 1281l-108 -109l-110 111l110 109l100 -100l109 108l110 -109l-110 -111z" />
    <glyph glyph-name="uni06B4.fina" unicode="&#x6b4;" 
d="M1026 1255l-32 -92q-202 -67 -576 -267l23 90q362 186 585 269zM1043 1067l-49 -118l-276 -135q-201 -98 -201 -138q0 -12 50 -41q194 -116 302 -258l110 -145q38 -48 69 -69.5t59 -30.5t58 -9h64v-123h-13q-148 0 -223 60t-117 139q-47 -207 -274 -207q-263 0 -372.5 13
t-164.5 61.5t-55 140.5q0 83 49 191t84 108q7 0 7 -6q0 -7 -33 -79t-33 -116q0 -79 43.5 -122t128 -55t304.5 -12q105 0 154 5t82 27t33 60q0 55 -81.5 150.5t-234.5 164.5q-75 33 -88.5 48.5t-14.5 53.5q0 45 27.5 97.5t64.5 84t174.5 102.5t366.5 158zM726 1494l-110 -110
l-110 110l110 109zM620 1281l-108 -109l-110 111l110 109l100 -100l109 108l110 -109l-110 -111z" />
    <glyph glyph-name="uni06B5.init" unicode="&#x6b5;" 
d="M0 0v123h969q104 0 104 62q0 244 -29.5 504t-79.5 354q33 63 84 129q41 -87 88 -131l-58 -101q71 -545 71 -763q0 -78 -41.5 -127.5t-216.5 -49.5h-891zM1172 1492q0 -11 -15 -34l-152 -228l-152 228q-15 23 -15 34q0 27 25 27q18 0 35 -26l107 -160l107 160q17 26 35 26
q25 0 25 -27z" />
    <glyph glyph-name="uni06B5.medi" unicode="&#x6b5;" 
d="M1229 0h-86q-116 0 -186.5 14.5t-117.5 65.5t-78 132q-72 -212 -251 -212h-510v123h529q58 0 95.5 27t53.5 81t16 198q0 548 -70 620q57 61 96 113q46 -80 46 -355v-115q0 -348 60.5 -458.5t187.5 -110.5h215v-123zM821 1492q0 -11 -15 -34l-152 -228l-152 228
q-15 23 -15 34q0 27 25 27q18 0 35 -26l107 -160l107 160q17 26 35 26q25 0 25 -27z" />
    <glyph glyph-name="uni06B5.fina" unicode="&#x6b5;" 
d="M972 181q6 -63 6 -139q0 -171 -70 -234.5t-222 -96t-262 -32.5q-144 -1 -227.5 60.5t-83.5 171.5q0 84 42 194t63 110q16 0 16 -13q0 -10 -29 -78q-30 -69 -30 -114q0 -67 29.5 -103.5t83.5 -65t114 -27.5q181 0 313 29.5t162.5 61t30.5 92.5q0 52 -19 249l-61 634
q-12 127 -43 145q29 64 72 137q38 -45 112 -104q-59 -72 -59 -146q0 -116 48 -571q10 -94 72.5 -156t138.5 -62h60v-123h-46q-64 0 -125 52t-86 129zM981 1492q0 -11 -15 -34l-152 -228l-152 228q-15 23 -15 34q0 27 25 27q18 0 35 -26l107 -160l107 160q17 26 35 26
q25 0 25 -27z" />
    <glyph glyph-name="uni06B6.init" unicode="&#x6b6;" 
d="M0 0v123h969q104 0 104 62q0 244 -29.5 504t-79.5 354q33 63 84 129q41 -87 88 -131l-58 -101q71 -545 71 -763q0 -78 -41.5 -127.5t-216.5 -49.5h-891zM1114 1340l-109 -110l-111 110l111 109z" />
    <glyph glyph-name="uni06B6.medi" unicode="&#x6b6;" 
d="M1229 0h-86q-116 0 -186.5 14.5t-117.5 65.5t-78 132q-72 -212 -251 -212h-510v123h529q58 0 95.5 27t53.5 81t16 198q0 548 -70 620q57 61 96 113q46 -80 46 -355v-115q0 -348 60.5 -458.5t187.5 -110.5h215v-123zM786 1340l-109 -110l-111 110l111 109z" />
    <glyph glyph-name="uni06B6.fina" unicode="&#x6b6;" 
d="M972 181q6 -63 6 -139q0 -171 -70 -234.5t-222 -96t-262 -32.5q-144 -1 -227.5 60.5t-83.5 171.5q0 84 42 194t63 110q16 0 16 -13q0 -10 -29 -78q-30 -69 -30 -114q0 -67 29.5 -103.5t83.5 -65t114 -27.5q181 0 313 29.5t162.5 61t30.5 92.5q0 52 -19 249l-61 634
q-12 127 -43 145q29 64 72 137q38 -45 112 -104q-59 -72 -59 -146q0 -116 48 -571q10 -94 72.5 -156t138.5 -62h60v-123h-46q-64 0 -125 52t-86 129zM923 1340l-109 -110l-111 110l111 109z" />
    <glyph glyph-name="uni06B7.init" unicode="&#x6b7;" 
d="M0 0v123h969q104 0 104 62q0 244 -29.5 504t-79.5 354q33 63 84 129q41 -87 88 -131l-58 -101q71 -545 71 -763q0 -78 -41.5 -127.5t-216.5 -49.5h-891zM1134 1494l-110 -110l-110 110l110 109zM1028 1281l-108 -109l-110 111l110 109l100 -100l109 108l110 -109
l-110 -111z" />
    <glyph glyph-name="uni06B7.medi" unicode="&#x6b7;" 
d="M1229 0h-86q-116 0 -186.5 14.5t-117.5 65.5t-78 132q-72 -212 -251 -212h-510v123h529q58 0 95.5 27t53.5 81t16 198q0 548 -70 620q57 61 96 113q46 -80 46 -355v-115q0 -348 60.5 -458.5t187.5 -110.5h215v-123zM814 1494l-110 -110l-110 110l110 109zM708 1281
l-108 -109l-110 111l110 109l100 -100l109 108l110 -109l-110 -111z" />
    <glyph glyph-name="uni06B7.fina" unicode="&#x6b7;" 
d="M972 181q6 -63 6 -139q0 -171 -70 -234.5t-222 -96t-262 -32.5q-144 -1 -227.5 60.5t-83.5 171.5q0 84 42 194t63 110q16 0 16 -13q0 -10 -29 -78q-30 -69 -30 -114q0 -67 29.5 -103.5t83.5 -65t114 -27.5q181 0 313 29.5t162.5 61t30.5 92.5q0 52 -19 249l-61 634
q-12 127 -43 145q29 64 72 137q38 -45 112 -104q-59 -72 -59 -146q0 -116 48 -571q10 -94 72.5 -156t138.5 -62h60v-123h-46q-64 0 -125 52t-86 129zM954 1494l-110 -110l-110 110l110 109zM848 1281l-108 -109l-110 111l110 109l100 -100l109 108l110 -109l-110 -111z" />
    <glyph glyph-name="uni06B8.init" unicode="&#x6b8;" 
d="M0 0v123h969q104 0 104 62q0 244 -29.5 504t-79.5 354q33 63 84 129q41 -87 88 -131l-58 -101q71 -545 71 -763q0 -78 -41.5 -127.5t-216.5 -49.5h-891zM937 -249l-108 -110l-110 111l110 109l100 -99l109 107l110 -109l-110 -111zM1043 -451l-110 -110l-110 110l110 109
z" />
    <glyph glyph-name="uni06B8.medi" unicode="&#x6b8;" 
d="M1229 0h-86q-116 0 -186.5 14.5t-117.5 65.5t-78 132q-72 -212 -251 -212h-510v123h529q58 0 95.5 27t53.5 81t16 198q0 548 -70 620q57 61 96 113q46 -80 46 -355v-115q0 -348 60.5 -458.5t187.5 -110.5h215v-123zM697 -249l-108 -110l-110 111l110 109l100 -99l109 107
l110 -109l-110 -111zM803 -451l-110 -110l-110 110l110 109z" />
    <glyph glyph-name="uni06B8.fina" unicode="&#x6b8;" 
d="M972 181q6 -63 6 -139q0 -171 -70 -234.5t-222 -96t-262 -32.5q-144 -1 -227.5 60.5t-83.5 171.5q0 84 42 194t63 110q16 0 16 -13q0 -10 -29 -78q-30 -69 -30 -114q0 -67 29.5 -103.5t83.5 -65t114 -27.5q181 0 313 29.5t162.5 61t30.5 92.5q0 52 -19 249l-61 634
q-12 127 -43 145q29 64 72 137q38 -45 112 -104q-59 -72 -59 -146q0 -116 48 -571q10 -94 72.5 -156t138.5 -62h60v-123h-46q-64 0 -125 52t-86 129zM537 -399l-78 -60l-80 61l80 59l70 -49l79 57l80 -59l-80 -61zM613 -501l-80 -60l-80 60l80 59z" />
    <glyph glyph-name="uni06B9.init" unicode="&#x6b9;" 
d="M0 0v123h885q71 0 146.5 32t75.5 65q0 178 -104 292l68 170q116 -174 116 -366q0 -102 -65 -209t-158 -107h-964zM1105 985l-109 -110l-111 110l111 109zM1070 -299l-109 -110l-111 110l111 109z" />
    <glyph glyph-name="uni06B9.medi" unicode="&#x6b9;" 
d="M1229 0h-76q-108 0 -180.5 12t-122 65.5t-86.5 135.5q-21 -72 -90 -142.5t-133 -70.5h-541v123h526q64 0 121 39.5t57 107.5q0 107 -64 259l83 144q63 -172 63 -268q0 -127 69 -204.5t192 -77.5h182v-123zM780 944l-109 -110l-111 110l111 109zM886 -335l-109 -110
l-111 110l111 109z" />
    <glyph glyph-name="uni06B9.fina" unicode="&#x6b9;" 
d="M1033 171q0 -121 -20.5 -201t-81 -144t-164.5 -106t-250 -42q-112 0 -197 37.5t-131.5 93.5t-46.5 153q1 188 75 351.5t118 163.5q18 0 18 -17q0 -24 -38 -94q-83 -151 -83 -316q0 -109 92.5 -171t204.5 -62q155 0 288 45t133 165q0 166 -80 347l69 219q42 -79 69 -231
q15 -78 77.5 -158.5t143.5 -80.5v-123q-144 0 -196 171zM733 936l-109 -110l-111 110l111 109zM653 -451l-109 -110l-111 110l111 109z" />
    <glyph glyph-name="uni06BA" unicode="&#x6ba;" arabic-form="isolated" 
d="M982 351l69 219q33 -62 64 -215t31 -240q0 -234 -138 -367t-379 -133q-162 0 -268.5 89t-106.5 235q0 188 74.5 351.5t118.5 163.5q18 0 18 -17q0 -24 -38 -94q-83 -151 -83 -316q0 -109 92 -191t205 -82q160 0 290.5 67t130.5 183q0 166 -80 347z" />
    <glyph glyph-name="uni06BB" unicode="&#x6bb;" arabic-form="isolated" 
d="M982 351l69 219q33 -62 64 -215t31 -240q0 -234 -138 -367t-379 -133q-162 0 -268.5 89t-106.5 235q0 188 74.5 351.5t118.5 163.5q18 0 18 -17q0 -24 -38 -94q-83 -151 -83 -316q0 -109 92 -191t205 -82q160 0 290.5 67t130.5 183q0 166 -80 347zM959 889
q0 -81 -57 -111q-41 -22 -131 -22h-230q-53 0 -74 52h121q55 46 55 123q0 220 -25 262l31 52l40 -41q-19 -20 -19 -121q0 -23 2 -68t2 -68q0 -19 -17 -93l76 84q68 78 133 78q93 0 93 -127zM925 868q0 37 -20 65q-23 31 -58 31q-53 0 -140 -96q-42 -46 -61 -60h211
q68 0 68 60z" />
    <glyph glyph-name="uni06BC.init" unicode="&#x6bc;" 
d="M0 0v123h885q71 0 146.5 32t75.5 65q0 178 -104 292l68 170q116 -174 116 -366q0 -102 -65 -209t-158 -107h-964zM1105 985l-109 -110l-111 110l111 109zM1065 -65q0 -66 -52 -108t-104 -42q-43 0 -68.5 34t-25.5 85q0 67 35 119.5t98 52.5q56 0 86.5 -42.5t30.5 -98.5z
M852 -65q0 -50 86 -50q73 0 73 27q0 19 -36 53.5t-72 34.5q-51 0 -51 -65z" />
    <glyph glyph-name="uni06BC.medi" unicode="&#x6bc;" 
d="M1229 0h-76q-108 0 -180.5 12t-122 65.5t-86.5 135.5q-21 -72 -90 -142.5t-133 -70.5h-541v123h526q64 0 121 39.5t57 107.5q0 107 -64 259l83 144q63 -172 63 -268q0 -127 69 -204.5t192 -77.5h182v-123zM780 944l-109 -110l-111 110l111 109zM685 -65q0 -66 -52 -108
t-104 -42q-43 0 -68.5 34t-25.5 85q0 67 35 119.5t98 52.5q56 0 86.5 -42.5t30.5 -98.5zM472 -65q0 -50 86 -50q73 0 73 27q0 19 -36 53.5t-72 34.5q-51 0 -51 -65z" />
    <glyph glyph-name="uni06BC.fina" unicode="&#x6bc;" 
d="M1033 171q0 -121 -20.5 -201t-81 -144t-164.5 -106t-250 -42q-112 0 -197 37.5t-131.5 93.5t-46.5 153q1 188 75 351.5t118 163.5q18 0 18 -17q0 -24 -38 -94q-83 -151 -83 -316q0 -109 92.5 -171t204.5 -62q155 0 288 45t133 165q0 166 -80 347l69 219q42 -79 69 -231
q15 -78 77.5 -158.5t143.5 -80.5v-123q-144 0 -196 171zM733 936l-109 -110l-111 110l111 109zM675 -387q0 -66 -52 -108t-104 -42q-43 0 -68.5 34t-25.5 85q0 67 35 119.5t98 52.5q56 0 86.5 -42.5t30.5 -98.5zM462 -387q0 -50 86 -50q73 0 73 27q0 19 -36 53.5t-72 34.5
q-51 0 -51 -65z" />
    <glyph glyph-name="uni06BD.fina" unicode="&#x6bd;" 
d="M1033 111q0 -121 -20.5 -201t-81 -159t-164.5 -126t-250 -47q-112 0 -197 42.5t-131.5 113.5t-46.5 168q1 188 75 351.5t118 163.5q18 0 18 -17q0 -24 -38 -94q-83 -151 -83 -316q0 -109 92.5 -191t204.5 -82q155 0 288 65t133 185q0 166 -80 347l69 219q42 -79 69 -231
q15 -78 77.5 -128.5t143.5 -50.5v-123q-144 0 -196 111zM730 1065l-110 -110l-110 110l110 109zM624 852l-108 -109l-110 111l110 109l100 -100l109 108l110 -109l-110 -111z" />
    <glyph glyph-name="uni06BE" unicode="&#x647;" arabic-form="initial" 
d="M792 -1q-133 75 -230 94q-113 -93 -311 -93h-251v123h110q179 0 230 4t84 26q-39 26 -39 81q0 71 57 160.5t119 123.5q-30 17 -115 17q22 95 43 112t51 17q59 0 123 -37t147.5 -134.5t83.5 -266.5q0 -88 -102 -227zM500 255l66 -15q97 104 97 187q0 50 -59 50
q-28 0 -84 -69.5t-56 -104.5q0 -34 36 -48zM808 150q7 42 7 62q0 119 -98 206q-22 -116 -81 -204q84 -25 172 -64z" />
    <glyph glyph-name="uni06BF.init" unicode="&#x6bf;" 
d="M1199 402l-51 -126q-153 0 -217.5 -7.5t-132 -39.5t-150.5 -92q-111 -80 -180 -108.5t-222 -28.5h-246v123h353q81 0 263 110q204 124 269 141q-246 167 -320 167q-76 0 -121 -67q-9 -13 -21 -13q-9 0 -9 18q0 54 56.5 114.5t141.5 60.5q70 0 166 -66l165 -111
q48 -32 116.5 -53.5t139.5 -21.5zM721 -249l-108 -110l-110 111l110 109l100 -99l109 107l110 -109l-110 -111zM827 -451l-110 -110l-110 110l110 109zM1019 910l-109 -110l-111 110l111 109z" />
    <glyph glyph-name="uni06BF.medi" unicode="&#x6bf;" 
d="M1229 0h-338q-83 0 -113 44.5t-30 139.5q0 62 19 138q-63 -22 -257 -182q-170 -140 -262 -140h-248v123h236q75 0 209 87q207 134 294 176q-256 156 -354 156q-60 0 -99 -40q-40 -40 -43 -40q-8 0 -8 16q0 64 56.5 124t141.5 60q76 0 267 -107q190 -107 335 -107
l-58 -121q-38 9 -79 9q-36 0 -69 -5q-7 -54 -7 -86q0 -55 22 -88.5t127 -33.5h258v-123zM616 -249l-108 -110l-110 111l110 109l100 -99l109 107l110 -109l-110 -111zM722 -451l-110 -110l-110 110l110 109zM757 965l-109 -110l-111 110l111 109z" />
    <glyph glyph-name="uni06BF.fina" unicode="&#x6bf;" 
d="M1230 0h-338q-84 0 -116 48q-27 39 -27 128q0 70 17 146q-152 -35 -312 -158q-195 -155 -195 -313q0 -139 149 -220q122 -61 297 -61q99 0 233 38q22 6 151 47q0 -72 -179 -153q-145 -63 -232 -63q-224 0 -365 106q-155 117 -155 273q0 201 243 391q155 118 338 176
q-75 52 -187.5 105t-163.5 53q-66 0 -102.5 -40t-41.5 -40q-9 0 -9 20q0 70 64 126q62 53 133 53q73 0 174 -55l155 -84q137 -74 276 -74l-59 -123q-54 9 -100 9q-26 0 -49 -3q-8 -34 -8 -89q0 -120 128 -120h281v-123zM587 -89l-85 -87l-87 87l87 86l79 -78l86 85l86 -86
l-86 -88zM671 -249l-87 -86l-87 86l87 86zM844 899l-109 -110l-111 110l111 109z" />
    <glyph glyph-name="uni06C0" unicode="&#x6c0;" arabic-form="isolated" 
d="M612 547q-17 9 -63 9q35 89 50 108t46 19q91 0 188 -100.5t97 -224.5q0 -121 -31.5 -204.5t-78.5 -123t-146 -38.5q-81 0 -127.5 54.5t-47.5 147.5q1 83 20.5 154.5t92.5 198.5zM676 517q-105 -167 -105 -223q0 -176 133 -176q143 0 143 144q0 109 -44 160.5t-127 94.5z
M544 830l8 43q47 33 76 70q-98 6 -98 90q0 58 39 114t90 56q80 0 80 -73q0 -24 -12 -48q-73 53 -105 53q-51 0 -51 -43q0 -36 52.5 -68t92.5 -32q36 0 88 22v-73z" />
    <glyph glyph-name="uni06C1" unicode="&#x6c1;" arabic-form="final" 
d="M1229 0h-180q-84 0 -185.5 88.5t-118.5 88.5q-59 0 -126 -196q-74 -216 -112 -270q-24 -35 -74 -33q38 94 91 249q59 173 85 230q63 141 164 141q40 0 141 -87.5t173 -87.5h142v-123z" />
    <glyph glyph-name="uni06C4.fina" unicode="&#x6c4;" 
d="M1229 123v-123h-307q-13 -158 -123.5 -284t-243.5 -126q-76 0 -219.5 30t-143.5 65q0 16 15 16q22 0 87 -12q57 -12 90 -12q88 0 219.5 52t175 92t64.5 71.5t21 110.5q-14 0 -43 -2q-30 -3 -64 -3q-109 0 -156 24.5t-47 103.5q0 106 65 272t139 166q151 0 168 -441h303z
M843 126q0 82 -27.5 189.5t-68.5 107.5q-40 0 -71.5 -85t-31.5 -144q0 -34 18.5 -53.5t98.5 -19.5q15 0 41 2q25 3 41 3zM635 -243q0 -66 -52 -108t-104 -42q-43 0 -68.5 34t-25.5 85q0 67 35 119.5t98 52.5q56 0 86.5 -42.5t30.5 -98.5zM422 -243q0 -50 86 -50q73 0 73 27
q0 19 -36 53.5t-72 34.5q-51 0 -51 -65z" />
    <glyph glyph-name="uni06C5" unicode="&#x6c5;" arabic-form="isolated" 
d="M932 68q0 -170 -99 -315q-112 -163 -274 -163q-71 0 -202 26q-161 32 -161 69q0 16 16 16q30 0 88 -12t88 -12q103 0 241 60q81 35 135 74q-53 -18 -103 -18q-23 0 -104.5 28.5t-111.5 28.5q-33 0 -69.5 -30t-38.5 -30q-4 2 -4 12q0 59 44.5 99t104.5 40
q24 0 112.5 -28.5t131.5 -28.5q76 0 133 42q14 38 10 83q-59 -11 -108 -11q-99 0 -139 17q-64 28 -64 111q0 100 57 255q68 183 147 183q100 0 143 -210q27 -129 27 -286zM847 135q0 72 -21 164q-29 124 -75 124q-42 0 -76 -96q-27 -79 -27 -133q0 -48 37 -63q23 -10 80 -10
q54 0 82 14z" />
    <glyph glyph-name="uni06C6" unicode="&#x6c6;" arabic-form="isolated" 
d="M869 9q-59 -11 -108 -11q-139 0 -171 37t-32 91q0 106 65 272t139 166q83 0 126.5 -147t43.5 -349q0 -184 -112.5 -331t-260.5 -147q-76 0 -219.5 30t-143.5 65q0 16 16 16q33 0 85 -12t91 -12q103 0 241 60t192.5 125.5t47.5 146.5zM847 135q0 81 -27.5 184.5
t-68.5 103.5q-40 0 -71.5 -85t-31.5 -144q0 -34 18.5 -53.5t98.5 -19.5q54 0 82 14zM871 939q0 -11 -15 -34l-152 -228l-152 228q-15 23 -15 34q0 27 25 27q18 0 35 -26l107 -160l107 160q17 26 35 26q25 0 25 -27z" />
    <glyph glyph-name="uni06C7" unicode="&#x6c7;" arabic-form="isolated" 
d="M869 9q-59 -11 -108 -11q-139 0 -171 37t-32 91q0 106 65 272t139 166q83 0 126.5 -147t43.5 -349q0 -184 -112.5 -331t-260.5 -147q-76 0 -219.5 30t-143.5 65q0 16 16 16q33 0 85 -12t91 -12q103 0 241 60t192.5 125.5t47.5 146.5zM847 135q0 81 -27.5 184.5
t-68.5 103.5q-40 0 -71.5 -85t-31.5 -144q0 -34 18.5 -53.5t98.5 -19.5q54 0 82 14zM509 667v13q142 64 197 143q-62 39 -62 88q0 45 44 107.5t83 62.5q23 0 39 -29.5t16 -64.5q0 -51 -32 -115q49 -24 49 -51v-51q-18 0 -54 15q-44 20 -51 22q-119 -148 -198 -148
q-17 0 -31 8zM763 888q17 29 17 61q0 62 -42 62q-39 0 -39 -50q0 -61 64 -73z" />
    <glyph glyph-name="uni06C8" unicode="&#x6c8;" arabic-form="isolated" 
d="M869 9q-59 -11 -108 -11q-139 0 -171 37t-32 91q0 106 65 272t139 166q83 0 126.5 -147t43.5 -349q0 -184 -112.5 -331t-260.5 -147q-76 0 -219.5 30t-143.5 65q0 16 16 16q33 0 85 -12t91 -12q103 0 241 60t192.5 125.5t47.5 146.5zM847 135q0 81 -27.5 184.5
t-68.5 103.5q-40 0 -71.5 -85t-31.5 -144q0 -34 18.5 -53.5t98.5 -19.5q54 0 82 14zM704 677q0 55 -9 137q-11 104 -11 220l60 110l-1 -102q0 -39 3 -93q4 -64 4 -104q0 -37 -15.5 -98.5t-30.5 -69.5z" />
    <glyph glyph-name="uni06C9" unicode="&#x6c9;" arabic-form="isolated" 
d="M869 9q-59 -11 -108 -11q-139 0 -171 37t-32 91q0 106 65 272t139 166q83 0 126.5 -147t43.5 -349q0 -184 -112.5 -331t-260.5 -147q-76 0 -219.5 30t-143.5 65q0 16 16 16q33 0 85 -12t91 -12q103 0 241 60t192.5 125.5t47.5 146.5zM847 135q0 81 -27.5 184.5
t-68.5 103.5q-40 0 -71.5 -85t-31.5 -144q0 -34 18.5 -53.5t98.5 -19.5q54 0 82 14zM871 704q0 -27 -25 -27q-18 0 -35 26l-107 160l-107 -160q-17 -26 -35 -26q-25 0 -25 27q0 12 15 34l152 228l152 -228q15 -22 15 -34z" />
    <glyph glyph-name="uni06CA.fina" unicode="&#x6ca;" 
d="M1229 123v-123h-307q-13 -158 -123.5 -284t-243.5 -126q-76 0 -219.5 30t-143.5 65q0 16 15 16q22 0 87 -12q57 -12 90 -12q88 0 219.5 52t175 92t64.5 71.5t21 110.5q-14 0 -43 -2q-30 -3 -64 -3q-109 0 -156 24.5t-47 103.5q0 106 65 272t139 166q151 0 168 -441h303z
M843 126q0 82 -27.5 189.5t-68.5 107.5q-40 0 -71.5 -85t-31.5 -144q0 -34 18.5 -53.5t98.5 -19.5q15 0 41 2q25 3 41 3zM704 853l-108 -109l-110 111l110 109l100 -100l109 108l110 -109l-110 -111z" />
    <glyph glyph-name="uni06CB" unicode="&#x6cb;" arabic-form="isolated" 
d="M869 9q-59 -11 -108 -11q-139 0 -171 37t-32 91q0 106 65 272t139 166q83 0 126.5 -147t43.5 -349q0 -184 -112.5 -331t-260.5 -147q-76 0 -219.5 30t-143.5 65q0 16 16 16q33 0 85 -12t91 -12q103 0 241 60t192.5 125.5t47.5 146.5zM847 135q0 81 -27.5 184.5
t-68.5 103.5q-40 0 -71.5 -85t-31.5 -144q0 -34 18.5 -53.5t98.5 -19.5q54 0 82 14zM810 1051l-110 -110l-110 110l110 109zM704 838l-108 -109l-110 111l110 109l100 -100l109 108l110 -109l-110 -111z" />
    <glyph glyph-name="uni06CC" unicode="&#x6cc;" arabic-form="isolated" 
d="M1043 516q-35 26 -86 26q-57 0 -154.5 -61.5t-97.5 -120.5q0 -35 94 -52q108 -19 157.5 -33.5t81 -49.5t31.5 -88q0 -51 -58 -172t-195 -165t-261 -44q-385 0 -385 284q0 100 48 224t85 124q10 0 10 -15q0 -12 -35 -101q-35 -90 -35 -149q0 -117 71.5 -175.5t264.5 -58.5
q134 0 277 51.5t143 124.5q0 39 -33.5 64.5t-136 42t-137.5 39.5t-35 60q0 134 108 264t234 130q72 0 72 -57q0 -50 -28 -92z" />
    <glyph glyph-name="uni06CD.fina" unicode="&#x6cd;" 
d="M1229 0q-41 0 -123.5 4t-123.5 4q-225 0 -225 -69q0 -16 70 -31q92 -19 119 -30q81 -30 81 -79q0 -175 -189 -277q-156 -83 -347 -83q-181 0 -263 77q-86 80 -86 265q0 105 70 257l-166 -70q-17 -7 -17 22q0 25 19 33l213 88q15 6 17 6q10 0 10 -15q0 -14 -35 -105.5
t-35 -143.5q0 -137 70 -201q74 -68 240 -68q97 0 226 25q177 35 177 92q0 45 -125.5 79.5t-125.5 69.5q0 273 311 273h238v-123z" />
    <glyph glyph-name="uni06CE.medi" unicode="&#x6ce;" 
d="M0 0v123h885q71 0 146.5 32t75.5 65q0 178 -104 292l68 170q116 -174 116 -366q0 -102 -65 -209t-158 -107h-964zM951 -348l-108 -109l-110 111l110 109l100 -100l109 108l110 -109l-110 -111zM1141 1137q0 -11 -15 -34l-152 -228l-152 228q-15 23 -15 34q0 27 25 27
q18 0 35 -26l107 -160l107 160q17 26 35 26q25 0 25 -27z" />
    <glyph glyph-name="uni06CE.fina" unicode="&#x6ce;" 
d="M1229 0q-44 0 -107 4q-64 4 -140 4q-225 0 -225 -69q0 -16 70 -31q138 -29 169 -54.5t31 -54.5q0 -158 -161.5 -259t-374.5 -101q-199 0 -289 84.5t-90 254.5q0 91 47 207t84 116q18 0 18 -20q0 -16 -22 -54q-51 -91 -51 -177q0 -266 340 -266q125 0 264 34t139 83
q0 50 -126 79q-125 29 -125 70q0 132 81.5 202.5t229.5 70.5h238v-123zM781 592q0 -11 -15 -34l-152 -228l-152 228q-15 23 -15 34q0 27 25 27q18 0 35 -26l107 -160l107 160q17 26 35 26q25 0 25 -27z" />
    <glyph glyph-name="uni06CF.fina" unicode="&#x6cf;" 
d="M1229 123v-123h-307q-13 -158 -123.5 -284t-243.5 -126q-76 0 -219.5 30t-143.5 65q0 16 15 16q22 0 87 -12q57 -12 90 -12q88 0 219.5 52t175 92t64.5 71.5t21 110.5q-14 0 -43 -2q-30 -3 -64 -3q-109 0 -156 24.5t-47 103.5q0 106 65 272t139 166q151 0 168 -441h303z
M843 126q0 82 -27.5 189.5t-68.5 107.5q-40 0 -71.5 -85t-31.5 -144q0 -34 18.5 -53.5t98.5 -19.5q15 0 41 2q25 3 41 3zM813 839l-109 -110l-111 110l111 109z" />
    <glyph glyph-name="uni06D0" unicode="&#x6d0;" arabic-form="isolated" 
d="M1043 516q-35 26 -86 26q-57 0 -154.5 -61.5t-97.5 -120.5q0 -35 94 -52q108 -19 157.5 -33.5t81 -49.5t31.5 -88q0 -51 -58 -172t-195 -165t-261 -44q-385 0 -385 284q0 100 48 224t85 124q10 0 10 -15q0 -12 -35 -101q-35 -90 -35 -149q0 -117 71.5 -175.5t264.5 -58.5
q134 0 277 51.5t143 124.5q0 39 -33.5 64.5t-136 42t-137.5 39.5t-35 60q0 134 108 264t234 130q72 0 72 -57q0 -50 -28 -92zM698 -501l-81 -60l-79 60l69 50l-77 59l79 60l81 -60l-72 -51z" />
    <glyph glyph-name="uni06D1.fina" unicode="&#x6d1;" 
d="M1229 0q-11 0 -98 20.5t-148 19.5q-165 0 -165 -16q0 -14 36 -21l73 -18q65 -19 65 -75q0 -113 -179 -184q-160 -51 -322 -51q-373 -10 -373 207q0 59 29 146q34 105 77 105q18 0 18 -21q0 6 -27 -82q-19 -59 -19 -106q0 -68 80 -92q79 -32 252 -32q90 0 238 21
q131 26 131 51q0 24 -36 30l-67 17q-71 24 -71 68q0 64 66 117q72 51 203 51q128 -1 237 -32v-123zM537 -399l-78 -60l-80 61l80 59l70 -49l79 57l80 -59l-80 -61zM613 -501l-80 -60l-80 60l80 59z" />
    <glyph glyph-name="uni06D2" unicode="&#x6d2;" arabic-form="isolated" 
d="M1227 -287q-31 -75 -67.5 -99t-109.5 -24h-737q-143 0 -183 40.5t-40 182.5q0 113 182 196q53 23 155 75q31 18 94 146q57 116 97 116q45 0 37 -223q-16 107 -52 107t-75 -114q-43 -125 -71 -141q-39 -17 -148 -67q-92 -44 -122 -67q-34 -27 -34 -60q0 -55 103 -61
q127 -7 225 -7h746z" />
    <glyph glyph-name="uni06D3" unicode="&#x6d3;" arabic-form="isolated" 
d="M1227 -287q-31 -75 -67.5 -99t-109.5 -24h-737q-143 0 -183 40.5t-40 182.5q0 113 182 196q53 23 155 75q31 18 94 146q57 116 97 116q45 0 37 -223q-16 107 -52 107t-75 -114q-43 -125 -71 -141q-39 -17 -148 -67q-92 -44 -122 -67q-34 -27 -34 -60q0 -55 103 -61
q127 -7 225 -7h746zM179 230l8 43q47 33 76 70q-98 6 -98 90q0 58 39 114t90 56q80 0 80 -73q0 -24 -12 -48q-73 53 -105 53q-51 0 -51 -43q0 -36 52.5 -68t92.5 -32q36 0 88 22v-73z" />
    <glyph glyph-name="uni06EE.fina" unicode="&#x6ee;" 
d="M884 315q26 -129 77.5 -160.5t162.5 -31.5h105v-123h-109q-154 0 -212 47.5t-85 150.5q-94 -158 -256 -158q-134 0 -182 37.5t-48 111.5q0 37 11.5 80t25.5 43q13 0 13 -32q0 -60 40.5 -82.5t155.5 -22.5q75 0 147 32.5t72 85.5q0 182 -51 436l83 121q50 -299 50 -535z
M961 987q0 -27 -25 -27q-18 0 -35 26l-107 160l-107 -160q-17 -26 -35 -26q-25 0 -25 27q0 12 15 34l152 228l152 -228q15 -22 15 -34z" />
    <glyph glyph-name="uni06EF.fina" unicode="&#x6ef;" 
d="M1113 0q-80 0 -124.5 26.5t-76.5 95.5q-17 -233 -150 -388.5t-258 -155.5q-106 0 -170 19l-185 55q-48 14 -48 41q0 26 25 26q7 0 88 -15t169 -15q100 0 219 81t187 179t68 151q0 78 -17.5 163t-106.5 239l63 170q78 -121 110 -366q37 -183 207 -183h116v-123h-116z
M901 797q0 -27 -25 -27q-18 0 -35 26l-107 160l-107 -160q-17 -26 -35 -26q-25 0 -25 27q0 12 15 34l152 228l152 -228q15 -22 15 -34z" />
    <glyph glyph-name="uni06FA.init" unicode="&#x6fa;" 
d="M768 72q-69 -72 -139 -72q-125 0 -162 90q-86 -90 -180 -90h-287v123h287q40 0 72.5 32t48.5 71t61 156q35 91 70 91q21 0 21 -29q0 -17 -29 -101q-28 -85 -28 -131q0 -91 117 -91q42 0 71 49t61 218q16 86 49 86q24 0 24 -45q0 -25 -9 -88t-9 -95q0 -125 126 -125
q123 0 123 106q0 139 -74 316l93 129q25 -41 42.5 -147t17.5 -185q0 -340 -245 -340q-85 0 -122 72zM861 1056l-110 -110l-110 110l110 109zM755 843l-108 -109l-110 111l110 109l100 -100l109 108l110 -109l-110 -111zM857 -321l-109 -110l-111 110l111 109z" />
    <glyph glyph-name="uni06FA.medi" unicode="&#x6fa;" 
d="M971 660q55 -86 55 -320q29 -217 203 -217v-123q-100 0 -142 35.5t-80 160.5q-41 -196 -227 -196q-85 0 -122 72q-69 -72 -139 -72q-125 0 -162 90q-86 -90 -180 -90h-177v123h177q40 0 73 32t54 83.5t57 143.5q34 91 68 91q21 0 21 -29q0 -17 -29 -101q-28 -85 -28 -131
q0 -91 117 -91q32 0 58 31t41 79t38 176q12 67 44 67q24 0 24 -45q0 -25 -9 -88t-9 -95q0 -125 126 -125q123 0 123 106q0 194 -53 320q41 50 78 113zM773 1055l-110 -110l-110 110l110 109zM667 842l-108 -109l-110 111l110 109l100 -100l109 108l110 -109l-110 -111z
M757 -321l-109 -110l-111 110l111 109z" />
    <glyph glyph-name="uni06FA.fina" unicode="&#x6fa;" 
d="M1229 123v-123q-34 0 -72 40.5t-46 101.5q-36 -84 -82 -110.5t-122 -26.5q-88 0 -123 68q-47 -72 -108 -72q-45 0 -87 34q-8 -189 -94.5 -297.5t-239.5 -108.5q-113 0 -181 71t-68 337q0 147 87 311.5t140 164.5q11 0 11 -13q-111 -217 -133 -315.5t-22 -168.5
q0 -116 49.5 -186.5t138.5 -70.5q242 0 242 239q0 161 -54 284q16 80 41 242q37 -46 61.5 -161.5t24.5 -210.5q34 -28 73 -28q36 0 62.5 33.5t40 89t32.5 143.5q20 93 49 93q27 0 27 -49q0 -29 -10 -86q-11 -58 -11 -87q0 -134 110 -134q58 0 80.5 19t22.5 86q0 108 -59 310
l92 129q44 -170 44.5 -309t26 -189t57.5 -50zM789 1067l-110 -110l-110 110l110 109zM683 854l-108 -109l-110 111l110 109l100 -100l109 108l110 -109l-110 -111zM957 -321l-109 -110l-111 110l111 109z" />
    <glyph glyph-name="uni06FB.init" unicode="&#x6fb;" 
d="M355 90q-51 -55 -105.5 -72.5t-178.5 -17.5h-71v123h140q40 0 71.5 18t53.5 51t60 139q27 73 55 73q19 0 19 -24q0 -23 -10 -68q-9 -46 -9 -69q0 -115 159 -120q178 325 271.5 410t177.5 85q186 0 186 -302q0 -120 -54.5 -193.5t-164.5 -99t-322 -25.5q-241 0 -278 92z
M611 121h323q162 0 162 155q0 83 -41.5 148t-108.5 65q-36 0 -71.5 -19t-71.5 -56.5t-56 -70.5zM908 877l-109 -110l-111 110l111 109zM908 -321l-109 -110l-111 110l111 109z" />
    <glyph glyph-name="uni06FB.medi" unicode="&#x6fb;" 
d="M1138 149q31 -26 91 -26v-123q-81 0 -128 94q-96 -96 -468 -96q-241 0 -278 92q-51 -55 -105.5 -72.5t-178.5 -17.5h-71v123h140q40 0 71.5 18t53.5 51t60 139q27 73 55 73q19 0 19 -24q0 -23 -10 -68q-9 -46 -9 -69q0 -115 159 -120q178 325 271.5 410t177.5 85
q186 0 186 -302q0 -98 -36 -167zM611 121h323q162 0 162 155q0 83 -41.5 148t-108.5 65q-36 0 -71.5 -19t-71.5 -56.5t-56 -70.5zM908 877l-109 -110l-111 110l111 109zM908 -321l-109 -110l-111 110l111 109z" />
    <glyph glyph-name="uni06FB.fina" unicode="&#x6fb;" 
d="M1180 129q13 -6 49 -6v-123q-81 0 -99 69q-24 -35 -84 -53.5t-229 -18.5q-212 0 -254 35q-6 -194 -87.5 -306t-228.5 -112q-88 0 -145 37t-79.5 111t-22.5 269q0 159 84 319.5t133 160.5q8 0 8 -12q0 2 -3 -5q-32 -72 -87 -215.5t-55 -260.5q0 -272 174 -272
q240 0 240 253q0 152 -55 279q26 113 42 243q20 -22 52.5 -145t32.5 -246q18 -7 71 -7q184 501 379 501q192 0 192 -353q0 -80 -28 -142zM707 121h327q97 0 97 120q0 87 -49 169t-121 82q-30 0 -60 -21t-58.5 -63t-43.5 -76zM1011 870l-109 -110l-111 110l111 109z
M1011 -321l-109 -110l-111 110l111 109z" />
    <glyph glyph-name="uni06FC.init" unicode="&#x6fc;" 
d="M938 295l-18 -132l-355 -102q-109 -31 -204.5 -46t-179.5 -15h-181v122h122q179 0 245 8t110 39q-42 12 -103 66t-61 90q0 104 78.5 231.5t243.5 127.5q125 0 185.5 -80.5t60.5 -112.5q0 -18 -14 -18q-7 0 -40 24q-114 80 -209 80q-79 0 -151.5 -40.5t-72.5 -103.5
q0 -90 83.5 -144.5t202.5 -54.5q27 0 67.5 6t190.5 55zM615 1021l-109 -110l-111 110l111 109zM757 -306l-109 -110l-111 110l111 109z" />
    <glyph glyph-name="uni06FC.medi" unicode="&#x6fc;" 
d="M1229 0h-177q-217 0 -321 263q-70 -37 -146 -106q-103 -92 -161.5 -124.5t-162.5 -32.5h-261v123h272q88 0 144.5 27.5t182.5 126.5q49 39 89 63q-92 106 -200 114l60 146q118 38 212 38q243 0 243 -147q0 -114 -199 -192q65 -111 122.5 -143.5t153.5 -32.5h149v-123z
M587 520q123 -64 173 -141q131 46 131 100q0 75 -136 75q-55 0 -168 -34zM880 1015l-109 -110l-111 110l111 109zM857 -306l-109 -110l-111 110l111 109z" />
    <glyph glyph-name="uni06FC.fina" unicode="&#x6fc;" 
d="M1229 -332q0 -94 -188 -168q-156 -61 -268 -61q-191 0 -330 96q-159 111 -159 327q0 134 119 275q117 117 283 203q-27 46 -85.5 78t-113.5 36l60 146q125 38 213 38q244 0 244 -149q0 -118 -198 -188q51 -93 108 -133q64 -45 163 -45h152v-123h-177q-123 0 -203 74
q-66 61 -117 189q-144 -80 -247 -168q-113 -117 -113 -236q0 -130 149 -212q125 -68 269 -68q230 0 439 89zM574 514q116 -33 186 -133q131 47 131 98q0 75 -136 75q-71 0 -181 -40zM884 1014l-109 -110l-111 110l111 109zM817 -121l-109 -110l-111 110l111 109z" />
    <glyph glyph-name="uni06FF.init" unicode="&#x6ff;" 
d="M792 -1q-133 75 -230 94q-113 -93 -311 -93h-251v123h110q179 0 230 4t84 26q-39 26 -39 81q0 71 57 160.5t119 123.5q-30 17 -115 17q22 95 43 112t51 17q59 0 123 -37t147.5 -134.5t83.5 -266.5q0 -88 -102 -227zM500 255l66 -15q97 104 97 187q0 50 -59 50
q-28 0 -84 -69.5t-56 -104.5q0 -34 36 -48zM808 150q7 42 7 62q0 119 -98 206q-22 -116 -81 -204q84 -25 172 -64zM721 797q0 -27 -25 -27q-18 0 -35 26l-107 160l-107 -160q-17 -26 -35 -26q-25 0 -25 27q0 12 15 34l152 228l152 -228q15 -22 15 -34z" />
    <glyph glyph-name="uni06FF.medi" unicode="&#x6ff;" 
d="M1229 0q-314 0 -459 -23q78 -74 78 -131q0 -98 -61.5 -184t-131.5 -86q-76 0 -123 83t-47 194q0 25 13 77q-50 -23 -111 -39q7 57 41 138q-80 -29 -215 -29h-213v123h272q178 0 236 31q109 215 216 354t163 139q78 0 78 -119q0 -167 -45 -253.5t-234 -192.5
q119 41 260 41h283v-123zM586 166q128 28 226.5 130.5t98.5 152.5q0 75 -43 75q-64 0 -108.5 -56t-173.5 -302zM565 -18q-19 -76 -19 -132q0 -149 126 -149q100 0 100 78q0 57 -71.5 127.5t-135.5 75.5zM1041 797q0 -27 -25 -27q-18 0 -35 26l-107 160l-107 -160
q-17 -26 -35 -26q-25 0 -25 27q0 12 15 34l152 228l152 -228q15 -22 15 -34z" />
    <glyph glyph-name="uni06FF.fina" unicode="&#x6ff;" 
d="M1229 0q-314 0 -459 -23q78 -74 78 -131q0 -98 -61.5 -184t-131.5 -86q-76 0 -123 83t-47 194q0 25 13 77q-50 -23 -111 -39q7 57 41 138q-80 -29 -215 -29h-213v123h272q178 0 236 31q109 215 216 354t163 139q78 0 78 -119q0 -167 -45 -253.5t-234 -192.5
q119 41 260 41h283v-123zM586 166q128 28 226.5 130.5t98.5 152.5q0 75 -43 75q-64 0 -108.5 -56t-173.5 -302zM565 -18q-19 -76 -19 -132q0 -149 126 -149q100 0 100 78q0 57 -71.5 127.5t-135.5 75.5zM1041 797q0 -27 -25 -27q-18 0 -35 26l-107 160l-107 -160
q-17 -26 -35 -26q-25 0 -25 27q0 12 15 34l152 228l152 -228q15 -22 15 -34z" />
    <glyph glyph-name="uniFB51" unicode="&#x671;" arabic-form="final" 
d="M1229 0h-402q-86 0 -137.5 6t-75.5 17t-49 71.5t-25 159.5q0 70 5 200t5 207q0 263 -46 383l82 107q42 -120 42 -380v-2l-1 -58l-2 -115q-1 -30 -6 -138q-5 -98 -5 -151q0 -86 23 -135t92 -49h500v-123zM491 1389q102 134 139.5 153.5t65.5 19.5q24 0 40 -28.5t16 -65.5
q0 -62 -24.5 -101t-73.5 -49.5t-215 -10.5q-32 0 -46 -32q-22 -52 -26 -52q-15 0 -15 47q0 45 21 74.5t40 37.5t78 7zM530 1388h111q76 0 76 38q0 56 -54 56q-21 0 -67.5 -33t-65.5 -61z" />
    <glyph glyph-name="uniFB53" unicode="&#x67b;" arabic-form="final" 
d="M1229 123v-123q-103 0 -148 45t-81 165q-18 -70 -89.5 -140t-148.5 -70h-279q-267 0 -356.5 51t-89.5 154q0 109 50 210t75 101q9 0 9 -12q0 -9 -13 -34q-47 -91 -47 -151q0 -196 362 -196h279q86 0 137 42t51 98q0 132 -66 264l82 144q64 -148 64.5 -252t24.5 -168.5
t70 -96t114 -31.5zM668 -450l-111 -110l-109 110l99 100l-107 109l109 110l111 -110l-102 -101z" />
    <glyph glyph-name="uniFB54" unicode="&#x67b;" arabic-form="initial" 
d="M0 0v123h885q71 0 146.5 32t75.5 65q0 178 -104 292l68 170q116 -174 116 -366q0 -102 -65 -209t-158 -107h-964zM1088 -450l-111 -110l-109 110l99 100l-107 109l109 110l111 -110l-102 -101z" />
    <glyph glyph-name="uniFB55" unicode="&#x67b;" arabic-form="medial" 
d="M1229 0h-76q-108 0 -180.5 12t-122 65.5t-86.5 135.5q-21 -72 -90 -142.5t-133 -70.5h-541v123h526q64 0 121 39.5t57 107.5q0 107 -64 259l83 144q63 -172 63 -268q0 -127 69 -204.5t192 -77.5h182v-123zM888 -450l-111 -110l-109 110l99 100l-107 109l109 110l111 -110
l-102 -101z" />
    <glyph glyph-name="uniFB57" unicode="&#x67e;" arabic-form="final" 
d="M1229 123v-123q-103 0 -148 45t-81 165q-18 -70 -89.5 -140t-148.5 -70h-279q-267 0 -356.5 51t-89.5 154q0 109 50 210t75 101q9 0 9 -12q0 -9 -13 -34q-47 -91 -47 -151q0 -196 362 -196h279q86 0 137 42t51 98q0 132 -66 264l82 144q64 -148 64.5 -252t24.5 -168.5
t70 -96t114 -31.5zM603 -249l-108 -110l-110 111l110 109l100 -99l109 107l110 -109l-110 -111zM709 -451l-110 -110l-110 110l110 109z" />
    <glyph glyph-name="uniFB58" unicode="&#x67e;" arabic-form="initial" 
d="M0 0v123h885q71 0 146.5 32t75.5 65q0 178 -104 292l68 170q116 -174 116 -366q0 -102 -65 -209t-158 -107h-964zM981 -249l-108 -110l-110 111l110 109l100 -99l109 107l110 -109l-110 -111zM1087 -451l-110 -110l-110 110l110 109z" />
    <glyph glyph-name="uniFB59" unicode="&#x67e;" arabic-form="medial" 
d="M1229 0h-76q-108 0 -180.5 12t-122 65.5t-86.5 135.5q-21 -72 -90 -142.5t-133 -70.5h-541v123h526q64 0 121 39.5t57 107.5q0 107 -64 259l83 144q63 -172 63 -268q0 -127 69 -204.5t192 -77.5h182v-123zM752 -249l-108 -110l-110 111l110 109l100 -99l109 107l110 -109
l-110 -111zM858 -451l-110 -110l-110 110l110 109z" />
    <glyph glyph-name="uniFB5B" unicode="&#x680;" arabic-form="final" 
d="M1229 123v-123q-103 0 -148 45t-81 165q-18 -70 -89.5 -140t-148.5 -70h-279q-267 0 -356.5 51t-89.5 154q0 109 50 210t75 101q9 0 9 -12q0 -9 -13 -34q-47 -91 -47 -151q0 -196 362 -196h279q86 0 137 42t51 98q0 132 -66 264l82 144q64 -148 64.5 -252t24.5 -168.5
t70 -96t114 -31.5zM774 -442l-110 -111l-101 102l-108 -110l-110 111l96 96l-105 106l110 109l100 -99l109 107l110 -109l-97 -97zM650 -346l-96 97l-95 -96l96 -95z" />
    <glyph glyph-name="uniFB5C" unicode="&#x680;" arabic-form="initial" 
d="M0 0v123h885q71 0 146.5 32t75.5 65q0 178 -104 292l68 170q116 -174 116 -366q0 -102 -65 -209t-158 -107h-964zM1194 -442l-110 -111l-101 102l-108 -110l-110 111l96 96l-105 106l110 109l100 -99l109 107l110 -109l-97 -97zM1070 -346l-96 97l-95 -96l96 -95z" />
    <glyph glyph-name="uniFB5D" unicode="&#x680;" arabic-form="medial" 
d="M1229 0h-76q-108 0 -180.5 12t-122 65.5t-86.5 135.5q-21 -72 -90 -142.5t-133 -70.5h-541v123h526q64 0 121 39.5t57 107.5q0 107 -64 259l83 144q63 -172 63 -268q0 -127 69 -204.5t192 -77.5h182v-123zM974 -442l-110 -111l-101 102l-108 -110l-110 111l96 96
l-105 106l110 109l100 -99l109 107l110 -109l-97 -97zM850 -346l-96 97l-95 -96l96 -95z" />
    <glyph glyph-name="uniFB5F" unicode="&#x67a;" arabic-form="final" 
d="M1229 123v-123q-103 0 -148 45t-81 165q-18 -70 -89.5 -140t-148.5 -70h-279q-267 0 -356.5 51t-89.5 154q0 109 50 210t75 101q9 0 9 -12q0 -9 -13 -34q-47 -91 -47 -151q0 -196 362 -196h279q86 0 137 42t51 98q0 132 -66 264l82 144q64 -148 64.5 -252t24.5 -168.5
t70 -96t114 -31.5zM668 769l-111 -110l-109 110l99 100l-107 109l109 110l111 -110l-102 -101z" />
    <glyph glyph-name="uniFB60" unicode="&#x67a;" arabic-form="initial" 
d="M0 0v123h885q71 0 146.5 32t75.5 65q0 178 -104 292l68 170q116 -174 116 -366q0 -102 -65 -209t-158 -107h-964zM1088 985l-111 -110l-109 110l99 100l-107 109l109 110l111 -110l-102 -101z" />
    <glyph glyph-name="uniFB61" unicode="&#x67a;" arabic-form="medial" 
d="M1229 0h-76q-108 0 -180.5 12t-122 65.5t-86.5 135.5q-21 -72 -90 -142.5t-133 -70.5h-541v123h526q64 0 121 39.5t57 107.5q0 107 -64 259l83 144q63 -172 63 -268q0 -127 69 -204.5t192 -77.5h182v-123zM788 985l-111 -110l-109 110l99 100l-107 109l109 110l111 -110
l-102 -101z" />
    <glyph glyph-name="uniFB63" unicode="&#x67f;" arabic-form="final" 
d="M1229 123v-123q-103 0 -148 45t-81 165q-18 -70 -89.5 -140t-148.5 -70h-279q-267 0 -356.5 51t-89.5 154q0 109 50 210t75 101q9 0 9 -12q0 -9 -13 -34q-47 -91 -47 -151q0 -196 362 -196h279q86 0 137 42t51 98q0 132 -66 264l82 144q64 -148 64.5 -252t24.5 -168.5
t70 -96t114 -31.5zM774 777l-110 -111l-101 102l-108 -110l-110 111l96 96l-105 106l110 109l100 -99l109 107l110 -109l-97 -97zM650 873l-96 97l-95 -96l96 -95z" />
    <glyph glyph-name="uniFB64" unicode="&#x67f;" arabic-form="initial" 
d="M0 0v123h885q71 0 146.5 32t75.5 65q0 178 -104 292l68 170q116 -174 116 -366q0 -102 -65 -209t-158 -107h-964zM1194 993l-110 -111l-101 102l-108 -110l-110 111l96 96l-105 106l110 109l100 -99l109 107l110 -109l-97 -97zM1070 1089l-96 97l-95 -96l96 -95z" />
    <glyph glyph-name="uniFB65" unicode="&#x67f;" arabic-form="medial" 
d="M1229 0h-76q-108 0 -180.5 12t-122 65.5t-86.5 135.5q-21 -72 -90 -142.5t-133 -70.5h-541v123h526q64 0 121 39.5t57 107.5q0 107 -64 259l83 144q63 -172 63 -268q0 -127 69 -204.5t192 -77.5h182v-123zM894 993l-110 -111l-101 102l-108 -110l-110 111l96 96l-105 106
l110 109l100 -99l109 107l110 -109l-97 -97zM770 1089l-96 97l-95 -96l96 -95z" />
    <glyph glyph-name="uniFB67" unicode="&#x679;" arabic-form="final" 
d="M1229 123v-123q-103 0 -148 45t-81 165q-18 -70 -89.5 -140t-148.5 -70h-279q-267 0 -356.5 51t-89.5 154q0 109 50 210t75 101q9 0 9 -12q0 -9 -13 -34q-47 -91 -47 -151q0 -196 362 -196h279q86 0 137 42t51 98q0 132 -66 264l82 144q64 -148 64.5 -252t24.5 -168.5
t70 -96t114 -31.5zM749 792q0 -81 -57 -111q-41 -22 -131 -22h-230q-53 0 -74 52h121q55 46 55 123q0 220 -25 262l31 52l40 -41q-19 -20 -19 -121q0 -23 2 -68t2 -68q0 -19 -17 -93l76 84q68 78 133 78q93 0 93 -127zM715 771q0 37 -20 65q-23 31 -58 31q-53 0 -140 -96
q-42 -46 -61 -60h211q68 0 68 60z" />
    <glyph glyph-name="uniFB68" unicode="&#x679;" arabic-form="initial" 
d="M0 0v123h885q71 0 146.5 32t75.5 65q0 178 -104 292l68 170q116 -174 116 -366q0 -102 -65 -209t-158 -107h-964zM1199 1008q0 -81 -57 -111q-41 -22 -131 -22h-230q-53 0 -74 52h121q55 46 55 123q0 220 -25 262l31 52l40 -41q-19 -20 -19 -121q0 -23 2 -68t2 -68
q0 -19 -17 -93l76 84q68 78 133 78q93 0 93 -127zM1165 987q0 37 -20 65q-23 31 -58 31q-53 0 -140 -96q-42 -46 -61 -60h211q68 0 68 60z" />
    <glyph glyph-name="uniFB69" unicode="&#x679;" arabic-form="medial" 
d="M1229 0h-76q-108 0 -180.5 12t-122 65.5t-86.5 135.5q-21 -72 -90 -142.5t-133 -70.5h-541v123h526q64 0 121 39.5t57 107.5q0 107 -64 259l83 144q63 -172 63 -268q0 -127 69 -204.5t192 -77.5h182v-123zM899 981q0 -81 -57 -111q-41 -22 -131 -22h-230q-53 0 -74 52
h121q55 46 55 123q0 220 -25 262l31 52l40 -41q-19 -20 -19 -121q0 -23 2 -68t2 -68q0 -19 -17 -93l76 84q68 78 133 78q93 0 93 -127zM865 960q0 37 -20 65q-23 31 -58 31q-53 0 -140 -96q-42 -46 -61 -60h211q68 0 68 60z" />
    <glyph glyph-name="uniFB6B" unicode="&#x6a4;" arabic-form="final" 
d="M1229 0q-133 0 -200 56q-98 -71 -220 -97.5t-354 -26.5q-170 0 -264 17.5t-139.5 66.5t-45.5 130q0 76 45 187.5t77 111.5q11 0 11 -20q0 -7 -28 -71q-27 -64 -27 -109q0 -75 61.5 -129t335.5 -54q234 0 325 9t141 41q-134 129 -134 243q0 70 89.5 181.5t154.5 111.5
q46 0 79 -52t33 -107q0 -234 -73 -332q36 -34 133 -34v-123zM1081 425q0 39 -22.5 70t-55.5 31q-36 0 -72.5 -41.5t-36.5 -77.5q0 -41 38 -106.5t81 -108.5q68 81 68 233zM1123 1137l-110 -110l-110 110l110 109zM1017 924l-108 -109l-110 111l110 109l100 -100l109 108
l110 -109l-110 -111z" />
    <glyph glyph-name="uniFB6C" unicode="&#x6a4;" arabic-form="initial" 
d="M0 0v123h856q110 0 168.5 11.5t85 50.5t26.5 103q0 23 -7 63q-91 -53 -152 -53q-60 0 -114.5 25.5t-54.5 66.5q0 125 61 268t148 143q90 0 140 -125.5t50 -305.5q0 -133 -31 -213t-76 -111.5t-92 -38.5t-226 -7h-782zM1096 467q-42 209 -109 209q-48 0 -80.5 -66.5
t-32.5 -130.5q0 -55 97 -55q39 0 125 43zM1073 1267l-110 -110l-110 110l110 109zM967 1054l-108 -109l-110 111l110 109l100 -100l109 108l110 -109l-110 -111z" />
    <glyph glyph-name="uniFB6D" unicode="&#x6a4;" arabic-form="medial" 
d="M629 123q249 0 318 50q-134 129 -134 243q0 69 85 181t159 112q49 0 81.5 -59t32.5 -121q0 -228 -86 -336q52 -70 144 -70v-123q-116 0 -211 113q-115 -113 -427 -113h-591v123h629zM1080 486q0 40 -22 71t-55 31q-34 0 -72 -41.5t-38 -78.5q0 -41 38 -106.5t81 -108.5
q68 81 68 233zM1085 1185l-110 -110l-110 110l110 109zM979 972l-108 -109l-110 111l110 109l100 -100l109 108l110 -109l-110 -111z" />
    <glyph glyph-name="uniFB6F" unicode="&#x6a6;" arabic-form="final" 
d="M1229 0q-133 0 -200 56q-98 -71 -220 -97.5t-354 -26.5q-170 0 -264 17.5t-139.5 66.5t-45.5 130q0 76 45 187.5t77 111.5q11 0 11 -20q0 -7 -28 -71q-27 -64 -27 -109q0 -75 61.5 -129t335.5 -54q234 0 325 9t141 41q-134 129 -134 243q0 70 89.5 181.5t154.5 111.5
q46 0 79 -52t33 -107q0 -234 -73 -332q36 -34 133 -34v-123zM1081 425q0 39 -22.5 70t-55.5 31q-36 0 -72.5 -41.5t-36.5 -77.5q0 -41 38 -106.5t81 -108.5q68 81 68 233zM1228 934l-110 -111l-101 102l-108 -110l-110 111l96 96l-105 106l110 109l100 -99l109 107l110 -109
l-97 -97zM1104 1030l-96 97l-95 -96l96 -95z" />
    <glyph glyph-name="uniFB70" unicode="&#x6a6;" arabic-form="initial" 
d="M0 0v123h856q110 0 168.5 11.5t85 50.5t26.5 103q0 23 -7 63q-91 -53 -152 -53q-60 0 -114.5 25.5t-54.5 66.5q0 125 61 268t148 143q90 0 140 -125.5t50 -305.5q0 -133 -31 -213t-76 -111.5t-92 -38.5t-226 -7h-782zM1096 467q-42 209 -109 209q-48 0 -80.5 -66.5
t-32.5 -130.5q0 -55 97 -55q39 0 125 43zM1178 1064l-110 -111l-101 102l-108 -110l-110 111l96 96l-105 106l110 109l100 -99l109 107l110 -109l-97 -97zM1054 1160l-96 97l-95 -96l96 -95z" />
    <glyph glyph-name="uniFB71" unicode="&#x6a6;" arabic-form="medial" 
d="M629 123q249 0 318 50q-134 129 -134 243q0 69 85 181t159 112q49 0 81.5 -59t32.5 -121q0 -228 -86 -336q52 -70 144 -70v-123q-116 0 -211 113q-115 -113 -427 -113h-591v123h629zM1080 486q0 40 -22 71t-55 31q-34 0 -72 -41.5t-38 -78.5q0 -41 38 -106.5t81 -108.5
q68 81 68 233zM1190 982l-110 -111l-101 102l-108 -110l-110 111l96 96l-105 106l110 109l100 -99l109 107l110 -109l-97 -97zM1066 1078l-96 97l-95 -96l96 -95z" />
    <glyph glyph-name="uniFB73" unicode="&#x684;" arabic-form="final" 
d="M1229 0h-338q-84 0 -116 48q-26 39 -26 128q0 70 17 146q-153 -35 -312 -158q-195 -155 -195 -313q0 -139 149 -220q122 -61 297 -61q99 0 232 38q23 6 151 47q0 -72 -178 -153q-146 -63 -232 -63q-224 0 -365 106q-155 117 -155 273q0 201 242 391q156 118 339 176
q-76 51 -188 104t-163 53q-66 0 -102.5 -39.5t-41.5 -39.5q-9 0 -9 20q0 70 64 126q62 53 133 53q73 0 174 -55l155 -84q137 -74 275 -74l-59 -123q-54 9 -99 9q-26 0 -49 -3q-8 -34 -8 -89q0 -120 127 -120h281v-123zM728 -210l-111 -110l-109 110l99 100l-107 109l109 110
l111 -110l-102 -101z" />
    <glyph glyph-name="uniFB74" unicode="&#x684;" arabic-form="initial" 
d="M1199 402l-51 -126q-153 0 -217.5 -7.5t-132 -39.5t-150.5 -92q-111 -80 -180 -108.5t-222 -28.5h-246v123h353q81 0 263 110q204 124 269 141q-246 167 -320 167q-76 0 -121 -67q-9 -13 -21 -13q-9 0 -9 18q0 54 56.5 114.5t141.5 60.5q70 0 166 -66l165 -111
q48 -32 116.5 -53.5t139.5 -21.5zM838 -450l-111 -110l-109 110l99 100l-107 109l109 110l111 -110l-102 -101z" />
    <glyph glyph-name="uniFB75" unicode="&#x684;" arabic-form="medial" 
d="M1229 0h-338q-83 0 -113 44.5t-30 139.5q0 62 19 138q-63 -22 -257 -182q-170 -140 -262 -140h-248v123h236q75 0 209 87q207 134 294 176q-256 156 -354 156q-60 0 -99 -40q-40 -40 -43 -40q-8 0 -8 16q0 64 56.5 124t141.5 60q76 0 267 -107q190 -107 335 -107
l-58 -121q-38 9 -79 9q-36 0 -69 -5q-7 -54 -7 -86q0 -55 22 -88.5t127 -33.5h258v-123zM767 -450l-111 -110l-109 110l99 100l-107 109l109 110l111 -110l-102 -101z" />
    <glyph glyph-name="uniFB77" unicode="&#x683;" arabic-form="final" 
d="M1229 0h-338q-84 0 -116 48q-26 39 -26 128q0 70 17 146q-153 -35 -312 -158q-195 -155 -195 -313q0 -139 149 -220q122 -61 297 -61q99 0 232 38q23 6 151 47q0 -72 -178 -153q-146 -63 -232 -63q-224 0 -365 106q-155 117 -155 273q0 201 242 391q156 118 339 176
q-76 51 -188 104t-163 53q-66 0 -102.5 -39.5t-41.5 -39.5q-9 0 -9 20q0 70 64 126q62 53 133 53q73 0 174 -55l155 -84q137 -74 275 -74l-59 -123q-54 9 -99 9q-26 0 -49 -3q-8 -34 -8 -89q0 -120 127 -120h281v-123zM602 -137l-108 -109l-110 111l110 109l100 -100
l109 108l110 -109l-110 -111z" />
    <glyph glyph-name="uniFB78" unicode="&#x683;" arabic-form="initial" 
d="M1199 402l-51 -126q-153 0 -217.5 -7.5t-132 -39.5t-150.5 -92q-111 -80 -180 -108.5t-222 -28.5h-246v123h353q81 0 263 110q204 124 269 141q-246 167 -320 167q-76 0 -121 -67q-9 -13 -21 -13q-9 0 -9 18q0 54 56.5 114.5t141.5 60.5q70 0 166 -66l165 -111
q48 -32 116.5 -53.5t139.5 -21.5zM722 -301l-108 -109l-110 111l110 109l100 -100l109 108l110 -109l-110 -111z" />
    <glyph glyph-name="uniFB79" unicode="&#x683;" arabic-form="medial" 
d="M1229 0h-338q-83 0 -113 44.5t-30 139.5q0 62 19 138q-63 -22 -257 -182q-170 -140 -262 -140h-248v123h236q75 0 209 87q207 134 294 176q-256 156 -354 156q-60 0 -99 -40q-40 -40 -43 -40q-8 0 -8 16q0 64 56.5 124t141.5 60q76 0 267 -107q190 -107 335 -107
l-58 -121q-38 9 -79 9q-36 0 -69 -5q-7 -54 -7 -86q0 -55 22 -88.5t127 -33.5h258v-123zM662 -301l-108 -109l-110 111l110 109l100 -100l109 108l110 -109l-110 -111z" />
    <glyph glyph-name="uniFB7B" unicode="&#x686;" arabic-form="final" 
d="M1230 0h-338q-84 0 -116 48q-27 39 -27 128q0 70 17 146q-152 -35 -312 -158q-195 -155 -195 -313q0 -139 149 -220q122 -61 297 -61q99 0 233 38q22 6 151 47q0 -72 -179 -153q-145 -63 -232 -63q-224 0 -365 106q-155 117 -155 273q0 201 243 391q155 118 338 176
q-75 52 -187.5 105t-163.5 53q-66 0 -102.5 -40t-41.5 -40q-9 0 -9 20q0 70 64 126q62 53 133 53q73 0 174 -55l155 -84q137 -74 276 -74l-59 -123q-54 9 -100 9q-26 0 -49 -3q-8 -34 -8 -89q0 -120 128 -120h281v-123zM587 -89l-85 -87l-87 87l87 86l79 -78l86 85l86 -86
l-86 -88zM671 -249l-87 -86l-87 86l87 86z" />
    <glyph glyph-name="uniFB7C" unicode="&#x686;" arabic-form="initial" 
d="M1199 402l-51 -126q-153 0 -217.5 -7.5t-132 -39.5t-150.5 -92q-111 -80 -180 -108.5t-222 -28.5h-246v123h353q81 0 263 110q204 124 269 141q-246 167 -320 167q-76 0 -121 -67q-9 -13 -21 -13q-9 0 -9 18q0 54 56.5 114.5t141.5 60.5q70 0 166 -66l165 -111
q48 -32 116.5 -53.5t139.5 -21.5zM721 -249l-108 -110l-110 111l110 109l100 -99l109 107l110 -109l-110 -111zM827 -451l-110 -110l-110 110l110 109z" />
    <glyph glyph-name="uniFB7D" unicode="&#x686;" arabic-form="medial" 
d="M1229 0h-338q-83 0 -113 44.5t-30 139.5q0 62 19 138q-63 -22 -257 -182q-170 -140 -262 -140h-248v123h236q75 0 209 87q207 134 294 176q-256 156 -354 156q-60 0 -99 -40q-40 -40 -43 -40q-8 0 -8 16q0 64 56.5 124t141.5 60q76 0 267 -107q190 -107 335 -107
l-58 -121q-38 9 -79 9q-36 0 -69 -5q-7 -54 -7 -86q0 -55 22 -88.5t127 -33.5h258v-123zM616 -249l-108 -110l-110 111l110 109l100 -99l109 107l110 -109l-110 -111zM722 -451l-110 -110l-110 110l110 109z" />
    <glyph glyph-name="uniFB7F" unicode="&#x687;" arabic-form="final" 
d="M1229 0h-338q-84 0 -116 48q-26 39 -26 128q0 70 17 146q-153 -35 -312 -158q-195 -155 -195 -313q0 -139 149 -220q122 -61 297 -61q99 0 232 38q23 6 151 47q0 -72 -178 -153q-146 -63 -232 -63q-224 0 -365 106q-155 117 -155 273q0 201 242 391q156 118 339 176
q-76 51 -188 104t-163 53q-66 0 -102.5 -39.5t-41.5 -39.5q-9 0 -9 20q0 70 64 126q62 53 133 53q73 0 174 -55l155 -84q137 -74 275 -74l-59 -123q-54 9 -99 9q-26 0 -49 -3q-8 -34 -8 -89q0 -120 127 -120h281v-123zM794 -222l-110 -111l-101 102l-108 -110l-110 111
l96 96l-105 106l110 109l100 -99l109 107l110 -109l-97 -97zM670 -126l-96 97l-95 -96l96 -95z" />
    <glyph glyph-name="uniFB80" unicode="&#x687;" arabic-form="initial" 
d="M1199 402l-51 -126q-153 0 -217.5 -7.5t-132 -39.5t-150.5 -92q-111 -80 -180 -108.5t-222 -28.5h-246v123h353q81 0 263 110q204 124 269 141q-246 167 -320 167q-76 0 -121 -67q-9 -13 -21 -13q-9 0 -9 18q0 54 56.5 114.5t141.5 60.5q70 0 166 -66l165 -111
q48 -32 116.5 -53.5t139.5 -21.5zM1034 -442l-110 -111l-101 102l-108 -110l-110 111l96 96l-105 106l110 109l100 -99l109 107l110 -109l-97 -97zM910 -346l-96 97l-95 -96l96 -95z" />
    <glyph glyph-name="uniFB81" unicode="&#x687;" arabic-form="medial" 
d="M1229 0h-338q-83 0 -113 44.5t-30 139.5q0 62 19 138q-63 -22 -257 -182q-170 -140 -262 -140h-248v123h236q75 0 209 87q207 134 294 176q-256 156 -354 156q-60 0 -99 -40q-40 -40 -43 -40q-8 0 -8 16q0 64 56.5 124t141.5 60q76 0 267 -107q190 -107 335 -107
l-58 -121q-38 9 -79 9q-36 0 -69 -5q-7 -54 -7 -86q0 -55 22 -88.5t127 -33.5h258v-123zM934 -442l-110 -111l-101 102l-108 -110l-110 111l96 96l-105 106l110 109l100 -99l109 107l110 -109l-97 -97zM810 -346l-96 97l-95 -96l96 -95z" />
    <glyph glyph-name="uniFB83" unicode="&#x68d;" arabic-form="final" 
d="M884 315q26 -129 77.5 -160.5t162.5 -31.5h105v-123h-109q-154 0 -212 47.5t-85 150.5q-94 -158 -256 -158q-134 0 -182 37.5t-48 111.5q0 37 11.5 80t25.5 43q13 0 13 -32q0 -60 40.5 -82.5t155.5 -22.5q75 0 147 32.5t72 85.5q0 182 -51 436l83 121q50 -299 50 -535z
M682 -301l-108 -109l-110 111l110 109l100 -100l109 108l110 -109l-110 -111z" />
    <glyph glyph-name="uniFB85" unicode="&#x68c;" arabic-form="final" 
d="M884 315q26 -129 77.5 -160.5t162.5 -31.5h105v-123h-109q-154 0 -212 47.5t-85 150.5q-94 -158 -256 -158q-134 0 -182 37.5t-48 111.5q0 37 11.5 80t25.5 43q13 0 13 -32q0 -60 40.5 -82.5t155.5 -22.5q75 0 147 32.5t72 85.5q0 182 -51 436l83 121q50 -299 50 -535z
M762 1090l-108 -109l-110 111l110 109l100 -100l109 108l110 -109l-110 -111z" />
    <glyph glyph-name="uniFB87" unicode="&#x68e;" arabic-form="final" 
d="M884 315q26 -129 77.5 -160.5t162.5 -31.5h105v-123h-109q-154 0 -212 47.5t-85 150.5q-94 -158 -256 -158q-134 0 -182 37.5t-48 111.5q0 37 11.5 80t25.5 43q13 0 13 -32q0 -60 40.5 -82.5t155.5 -22.5q75 0 147 32.5t72 85.5q0 182 -51 436l83 121q50 -299 50 -535z
M894 1306l-110 -110l-110 110l110 109zM788 1093l-108 -109l-110 111l110 109l100 -100l109 108l110 -109l-110 -111z" />
    <glyph glyph-name="uniFB89" unicode="&#x688;" arabic-form="final" 
d="M884 315q26 -129 77.5 -160.5t162.5 -31.5h105v-123h-109q-154 0 -212 47.5t-85 150.5q-94 -158 -256 -158q-134 0 -182 37.5t-48 111.5q0 37 11.5 80t25.5 43q13 0 13 -32q0 -60 40.5 -82.5t155.5 -22.5q75 0 147 32.5t72 85.5q0 182 -51 436l83 121q50 -299 50 -535z
M999 1117q0 -81 -57 -111q-41 -22 -131 -22h-230q-53 0 -74 52h121q55 46 55 123q0 220 -25 262l31 52l40 -41q-19 -20 -19 -121q0 -23 2 -68t2 -68q0 -19 -17 -93l76 84q68 78 133 78q93 0 93 -127zM965 1096q0 37 -20 65q-23 31 -58 31q-53 0 -140 -96q-42 -46 -61 -60
h211q68 0 68 60z" />
    <glyph glyph-name="uniFB8B" unicode="&#x698;" arabic-form="final" 
d="M1113 0q-80 0 -124.5 26.5t-76.5 95.5q-17 -233 -150 -388.5t-258 -155.5q-106 0 -170 19l-185 55q-48 14 -48 41q0 26 25 26q7 0 88 -15t169 -15q100 0 219 81t187 179t68 151q0 78 -17.5 163t-106.5 239l63 170q78 -121 110 -366q37 -183 207 -183h116v-123h-116z
M842 1116l-110 -110l-110 110l110 109zM736 903l-108 -109l-110 111l110 109l100 -100l109 108l110 -109l-110 -111z" />
    <glyph glyph-name="uniFB8D" unicode="&#x691;" arabic-form="final" 
d="M1113 0q-80 0 -124.5 26.5t-76.5 95.5q-17 -233 -150 -388.5t-258 -155.5q-106 0 -170 19l-185 55q-48 14 -48 41q0 26 25 26q7 0 88 -15t169 -15q100 0 219 81t187 179t68 151q0 78 -17.5 163t-106.5 239l63 170q78 -121 110 -366q37 -183 207 -183h116v-123h-116z
M939 957q0 -81 -57 -111q-41 -22 -131 -22h-230q-53 0 -74 52h121q55 46 55 123q0 220 -25 262l31 52l40 -41q-19 -20 -19 -121q0 -23 2 -68t2 -68q0 -19 -17 -93l76 84q68 78 133 78q93 0 93 -127zM905 936q0 37 -20 65q-23 31 -58 31q-53 0 -140 -96q-42 -46 -61 -60h211
q68 0 68 60z" />
    <glyph glyph-name="uniFB8F" unicode="&#x6a9;" arabic-form="final" 
d="M583 -13h-12q-375 0 -471.5 48t-96.5 168q0 83 49 191t84 108q7 0 7 -6q0 -7 -33 -79t-33 -116q0 -81 44.5 -122.5t137 -54.5t320.5 -13q164 0 219 6.5t86 34t31 60.5q0 92 -228 294l-48 43q-110 99 -121 115t-11 50q0 44 27.5 97t64.5 84.5t174.5 102.5t366.5 158
l-49 -118l-276 -135q-207 -101 -207 -141q0 -32 87 -115q201 -191 253 -273q14 -21 85 -113t109.5 -115t71.5 -23h15v-123h-14q-151 0 -259 195q-29 -126 -106.5 -167t-266.5 -41z" />
    <glyph glyph-name="uniFB90" unicode="&#x6a9;" arabic-form="initial" 
d="M1229 1160l-49 -118l-276 -135q-207 -101 -207 -141q0 -36 157 -177q160 -143 193.5 -197.5t33.5 -163.5q0 -152 -47.5 -189.5t-180.5 -38.5h-853v123h415h270q130 0 219 6.5t102 17.5t13 41q0 107 -243 323l-29 26q-132 118 -141.5 133.5t-9.5 47.5q0 45 27.5 97.5
t64.5 84t174 102.5t367 158z" />
    <glyph glyph-name="uniFB91" unicode="&#x6a9;" arabic-form="medial" 
d="M650 123q24 0 57.5 26.5t33.5 67.5q0 91 -227 292l-48 43q-109 98 -120.5 114t-11.5 51q0 44 27.5 97t64.5 84.5t174.5 102.5t366.5 158l-49 -118l-276 -135q-207 -101 -207 -141q0 -32 87 -115q200 -191 253 -273q12 -18 84.5 -112.5t119 -118t92.5 -23.5h158v-123h-29
q-118 0 -190.5 17.5t-129 62.5t-97.5 119q-46 -199 -240 -199h-543v123h650z" />
    <glyph glyph-name="uniFB93" unicode="&#x6af;" arabic-form="final" 
d="M1026 1255l-32 -92q-202 -67 -576 -267l23 90q362 186 585 269zM1043 1067l-49 -118l-276 -135q-201 -98 -201 -138q0 -12 50 -41q194 -116 302 -258l110 -145q38 -48 69 -69.5t59 -30.5t58 -9h64v-123h-13q-148 0 -223 60t-117 139q-47 -207 -274 -207q-263 0 -372.5 13
t-164.5 61.5t-55 140.5q0 83 49 191t84 108q7 0 7 -6q0 -7 -33 -79t-33 -116q0 -79 43.5 -122t128 -55t304.5 -12q105 0 154 5t82 27t33 60q0 55 -81.5 150.5t-234.5 164.5q-75 33 -88.5 48.5t-14.5 53.5q0 45 27.5 97.5t64.5 84t174.5 102.5t366.5 158z" />
    <glyph glyph-name="uniFB94" unicode="&#x6af;" arabic-form="initial" 
d="M1223 1247l-31 -92q-211 -69 -575 -264l24 90q354 181 582 266zM1229 1044l-53 -129l-267 -108q-210 -85 -210 -123q0 -13 48 -39q63 -34 148.5 -102t117.5 -100.5t49 -84t17 -120.5q0 -96 -9.5 -134.5t-39 -59.5t-115.5 -32.5t-231 -11.5h-684v123h643q148 0 239.5 7
t112.5 23t21 54q0 54 -68 137t-200 150q-107 55 -129.5 68t-22.5 61q0 101 92.5 176.5t540.5 244.5z" />
    <glyph glyph-name="uniFB95" unicode="&#x6af;" arabic-form="medial" 
d="M937 1252l-31 -92q-211 -70 -575 -264l24 90q355 181 582 266zM0 123h649q24 0 54.5 23t30.5 62q0 55 -82.5 151t-233.5 164q-75 33 -89 48.5t-14 53.5q1 45 28.5 97.5t64.5 84t174 102.5t366 158l-49 -118l-276 -135q-201 -98 -201 -138q0 -12 50 -41q194 -115 302 -258
q126 -169 176 -211.5t120 -42.5h159v-123h-30q-149 0 -217 24t-116 67t-84 108q-46 -199 -240 -199h-542v123z" />
    <glyph glyph-name="uniFB97" unicode="&#x6b3;" arabic-form="final" 
d="M1026 1255l-32 -92q-202 -67 -576 -267l23 90q362 186 585 269zM1043 1067l-49 -118l-276 -135q-201 -98 -201 -138q0 -12 50 -41q194 -116 302 -258l110 -145q38 -48 69 -69.5t59 -30.5t58 -9h64v-123h-13q-148 0 -223 60t-117 139q-47 -207 -274 -207q-263 0 -372.5 13
t-164.5 61.5t-55 140.5q0 83 49 191t84 108q7 0 7 -6q0 -7 -33 -79t-33 -116q0 -79 43.5 -122t128 -55t304.5 -12q105 0 154 5t82 27t33 60q0 55 -81.5 150.5t-234.5 164.5q-75 33 -88.5 48.5t-14.5 53.5q0 45 27.5 97.5t64.5 84t174.5 102.5t366.5 158zM588 -450l-111 -110
l-109 110l99 100l-107 109l109 110l111 -110l-102 -101z" />
    <glyph glyph-name="uniFB98" unicode="&#x6b3;" arabic-form="initial" 
d="M1223 1247l-31 -92q-211 -69 -575 -264l24 90q354 181 582 266zM1229 1044l-53 -129l-267 -108q-210 -85 -210 -123q0 -13 48 -39q63 -34 148.5 -102t117.5 -100.5t49 -84t17 -120.5q0 -96 -9.5 -134.5t-39 -59.5t-115.5 -32.5t-231 -11.5h-684v123h643q148 0 239.5 7
t112.5 23t21 54q0 54 -68 137t-200 150q-107 55 -129.5 68t-22.5 61q0 101 92.5 176.5t540.5 244.5zM928 -450l-111 -110l-109 110l99 100l-107 109l109 110l111 -110l-102 -101z" />
    <glyph glyph-name="uniFB99" unicode="&#x6b3;" arabic-form="medial" 
d="M937 1252l-31 -92q-211 -70 -575 -264l24 90q355 181 582 266zM0 123h649q24 0 54.5 23t30.5 62q0 55 -82.5 151t-233.5 164q-75 33 -89 48.5t-14 53.5q1 45 28.5 97.5t64.5 84t174 102.5t366 158l-49 -118l-276 -135q-201 -98 -201 -138q0 -12 50 -41q194 -115 302 -258
q126 -169 176 -211.5t120 -42.5h159v-123h-30q-149 0 -217 24t-116 67t-84 108q-46 -199 -240 -199h-542v123zM628 -450l-111 -110l-109 110l99 100l-107 109l109 110l111 -110l-102 -101z" />
    <glyph glyph-name="uniFB9B" unicode="&#x6b1;" arabic-form="final" 
d="M1026 1255l-32 -92q-202 -67 -576 -267l23 90q362 186 585 269zM1043 1067l-49 -118l-276 -135q-201 -98 -201 -138q0 -12 50 -41q194 -116 302 -258l110 -145q38 -48 69 -69.5t59 -30.5t58 -9h64v-123h-13q-148 0 -223 60t-117 139q-47 -207 -274 -207q-263 0 -372.5 13
t-164.5 61.5t-55 140.5q0 83 49 191t84 108q7 0 7 -6q0 -7 -33 -79t-33 -116q0 -79 43.5 -122t128 -55t304.5 -12q105 0 154 5t82 27t33 60q0 55 -81.5 150.5t-234.5 164.5q-75 33 -88.5 48.5t-14.5 53.5q0 45 27.5 97.5t64.5 84t174.5 102.5t366.5 158zM662 1318l-108 -109
l-110 111l110 109l100 -100l109 108l110 -109l-110 -111z" />
    <glyph glyph-name="uniFB9C" unicode="&#x6b1;" arabic-form="initial" 
d="M1223 1247l-31 -92q-211 -69 -575 -264l24 90q354 181 582 266zM1229 1044l-53 -129l-267 -108q-210 -85 -210 -123q0 -13 48 -39q63 -34 148.5 -102t117.5 -100.5t49 -84t17 -120.5q0 -96 -9.5 -134.5t-39 -59.5t-115.5 -32.5t-231 -11.5h-684v123h643q148 0 239.5 7
t112.5 23t21 54q0 54 -68 137t-200 150q-107 55 -129.5 68t-22.5 61q0 101 92.5 176.5t540.5 244.5zM862 1318l-108 -109l-110 111l110 109l100 -100l109 108l110 -109l-110 -111z" />
    <glyph glyph-name="uniFB9D" unicode="&#x6b1;" arabic-form="medial" 
d="M937 1252l-31 -92q-211 -70 -575 -264l24 90q355 181 582 266zM0 123h649q24 0 54.5 23t30.5 62q0 55 -82.5 151t-233.5 164q-75 33 -89 48.5t-14 53.5q1 45 28.5 97.5t64.5 84t174 102.5t366 158l-49 -118l-276 -135q-201 -98 -201 -138q0 -12 50 -41q194 -115 302 -258
q126 -169 176 -211.5t120 -42.5h159v-123h-30q-149 0 -217 24t-116 67t-84 108q-46 -199 -240 -199h-542v123zM562 1318l-108 -109l-110 111l110 109l100 -100l109 108l110 -109l-110 -111z" />
    <glyph glyph-name="uniFB9F" unicode="&#x6ba;" arabic-form="final" 
d="M1033 111q0 -121 -20.5 -201t-81 -159t-164.5 -126t-250 -47q-112 0 -197 42.5t-131.5 113.5t-46.5 168q1 188 75 351.5t118 163.5q18 0 18 -17q0 -24 -38 -94q-83 -151 -83 -316q0 -109 92.5 -191t204.5 -82q155 0 288 65t133 185q0 166 -80 347l69 219q42 -79 69 -231
q15 -78 77.5 -128.5t143.5 -50.5v-123q-144 0 -196 111z" />
    <glyph glyph-name="uniFBA1" unicode="&#x6bb;" arabic-form="final" 
d="M1033 111q0 -121 -20.5 -201t-81 -159t-164.5 -126t-250 -47q-112 0 -197 42.5t-131.5 113.5t-46.5 168q1 188 75 351.5t118 163.5q18 0 18 -17q0 -24 -38 -94q-83 -151 -83 -316q0 -109 92.5 -191t204.5 -82q155 0 288 65t133 185q0 166 -80 347l69 219q42 -79 69 -231
q15 -78 77.5 -128.5t143.5 -50.5v-123q-144 0 -196 111zM859 876q0 -81 -57 -111q-41 -22 -131 -22h-230q-53 0 -74 52h121q55 46 55 123q0 220 -25 262l31 52l40 -41q-19 -20 -19 -121q0 -23 2 -68t2 -68q0 -19 -17 -93l76 84q68 78 133 78q93 0 93 -127zM825 855
q0 37 -20 65q-23 31 -58 31q-53 0 -140 -96q-42 -46 -61 -60h211q68 0 68 60z" />
    <glyph glyph-name="uniFBA2" unicode="&#x6bb;" arabic-form="initial" 
d="M0 0v123h885q71 0 146.5 32t75.5 65q0 178 -104 292l68 170q116 -174 116 -366q0 -102 -65 -209t-158 -107h-964zM1209 1007q0 -81 -57 -111q-41 -22 -131 -22h-230q-53 0 -74 52h121q55 46 55 123q0 220 -25 262l31 52l40 -41q-19 -20 -19 -121q0 -23 2 -68t2 -68
q0 -19 -17 -93l76 84q68 78 133 78q93 0 93 -127zM1175 986q0 37 -20 65q-23 31 -58 31q-53 0 -140 -96q-42 -46 -61 -60h211q68 0 68 60z" />
    <glyph glyph-name="uniFBA3" unicode="&#x6bb;" arabic-form="medial" 
d="M1229 0h-76q-108 0 -180.5 12t-122 65.5t-86.5 135.5q-21 -72 -90 -142.5t-133 -70.5h-541v123h526q64 0 121 39.5t57 107.5q0 107 -64 259l83 144q63 -172 63 -268q0 -127 69 -204.5t192 -77.5h182v-123zM939 1007q0 -81 -57 -111q-41 -22 -131 -22h-230q-53 0 -74 52
h121q55 46 55 123q0 220 -25 262l31 52l40 -41q-19 -20 -19 -121q0 -23 2 -68t2 -68q0 -19 -17 -93l76 84q68 78 133 78q93 0 93 -127zM905 986q0 37 -20 65q-23 31 -58 31q-53 0 -140 -96q-42 -46 -61 -60h211q68 0 68 60z" />
    <glyph glyph-name="uniFBA5" unicode="&#x6c0;" arabic-form="final" 
d="M1229 0h-255q-56 0 -90 16t-50 44.5t-19.5 54t-12.5 163.5l-89 -75q-200 8 -262.5 22t-62.5 29q0 81 50.5 158t346.5 160q-11 122 -31 166l86 115q20 -342 53 -701q20 -29 58 -29h278v-123zM798 348l-9 149q-102 -23 -197 -64.5t-95 -76.5q0 -11 18 -16.5t86 -13.5
t104 -8q26 0 93 30zM644 930l8 43q47 33 76 70q-98 6 -98 90q0 58 39 114t90 56q80 0 80 -73q0 -24 -12 -48q-73 53 -105 53q-51 0 -51 -43q0 -36 52.5 -68t92.5 -32q36 0 88 22v-73z" />
    <glyph glyph-name="uniFBA6" unicode="&#x6c1;" arabic-form="isolated" 
d="M612 547q-17 9 -63 9q35 89 50 108t46 19q91 0 188 -100.5t97 -224.5q0 -121 -31.5 -204.5t-78.5 -123t-146 -38.5q-81 0 -127.5 54.5t-47.5 147.5q1 83 20.5 154.5t92.5 198.5zM676 517q-105 -167 -105 -223q0 -176 133 -176q143 0 143 144q0 109 -44 160.5t-127 94.5z
" />
    <glyph glyph-name="uniFBA8" unicode="&#x6c1;" arabic-form="initial" 
d="M1187 316q0 -102 -60 -202q-68 -114 -163 -114h-964v123h885q53 0 129 25q93 31 93 72q0 178 -104 292l68 170q116 -174 116 -366zM1089 -359q0 -82 -80 -82h-30q-79 0 -79 84q0 50 51 146q65 102 97 102q36 0 36 -30q0 -16 -30 -47q-59 -61 -69 -96h24q80 0 80 -77z" />
    <glyph glyph-name="uniFBA9" unicode="&#x6c1;" arabic-form="medial" 
d="M1229 0h-260q-94 0 -112 -146q-7 -61 -28 -61q-46 0 -73 121t-27 230q-16 -55 -68 -98q-56 -46 -120 -46h-541v123h526q144 0 178 127q26 96 46 145q43 101 75 101q9 0 9 -12q0 -5 -13 -34q-38 -85 -38 -226q0 -133 48 -256q11 68 53.5 111.5t102.5 43.5h242v-123z
M949 -479q0 -82 -80 -82h-30q-79 0 -79 84q0 50 51 146q65 102 97 102q36 0 36 -30q0 -16 -30 -47q-59 -61 -69 -96h24q80 0 80 -77z" />
    <glyph glyph-name="uniFBAB" unicode="&#x6be;" arabic-form="final" 
d="M1229 0h-255q-56 0 -90 16t-50 44.5t-19.5 54t-12.5 163.5l-89 -75q-200 8 -262.5 22t-62.5 29q0 81 50.5 158t346.5 160q-11 122 -31 166l86 115q20 -342 53 -701q20 -29 58 -29h278v-123zM798 348l-9 149q-102 -23 -197 -64.5t-95 -76.5q0 -11 18 -16.5t86 -13.5
t104 -8q26 0 93 30z" />
    <glyph glyph-name="uniFBAD" unicode="&#x6be;" arabic-form="medial" 
d="M1229 0q-314 0 -459 -23q78 -74 78 -131q0 -98 -61.5 -184t-131.5 -86q-76 0 -123 83t-47 194q0 25 13 77q-50 -23 -111 -39q7 57 41 138q-80 -29 -215 -29h-213v123h272q178 0 236 31q109 215 216 354t163 139q78 0 78 -119q0 -167 -45 -253.5t-234 -192.5
q119 41 260 41h283v-123zM586 166q128 28 226.5 130.5t98.5 152.5q0 75 -43 75q-64 0 -108.5 -56t-173.5 -302zM565 -18q-19 -76 -19 -132q0 -149 126 -149q100 0 100 78q0 57 -71.5 127.5t-135.5 75.5z" />
    <glyph glyph-name="uniFBAF" unicode="&#x6d2;" arabic-form="final" 
d="M1229 0h-215q-351 0 -526 -44q-335 -84 -335 -175q0 -55 103 -61q127 -7 225 -7h746q-31 -75 -67.5 -99t-109.5 -24h-737q-143 0 -183 40.5t-40 182.5q0 114 262 207q291 103 623 103h254v-123z" />
    <glyph glyph-name="uniFBB1" unicode="&#x6d3;" arabic-form="final" 
d="M1229 0h-215q-351 0 -526 -44q-335 -84 -335 -175q0 -55 103 -61q127 -7 225 -7h746q-31 -75 -67.5 -99t-109.5 -24h-737q-143 0 -183 40.5t-40 182.5q0 114 262 207q291 103 623 103h254v-123zM479 230l8 43q47 33 76 70q-98 6 -98 90q0 58 39 114t90 56q80 0 80 -73
q0 -24 -12 -48q-73 53 -105 53q-51 0 -51 -43q0 -36 52.5 -68t92.5 -32q36 0 88 22v-73z" />
    <glyph glyph-name="uniFBD4" unicode="&#x6ad;" arabic-form="final" 
d="M1039 1069q-33 -60 -33 -170q0 -47 15 -252q15 -206 15 -315q1 -84 45 -146.5t115 -62.5h33v-123q-76 0 -117.5 23.5t-91.5 141.5q-21 -81 -86.5 -127t-157.5 -58t-266 -12q-286 0 -370 58.5t-84 166.5q0 50 13.5 103.5t32.5 53.5q13 0 13 -19l-3 -47q0 -88 82.5 -136
t373.5 -48q113 0 194 10.5t131 30.5t61.5 41.5t11.5 65.5q0 146 -27 420l-30 301q-3 27 -39 67q25 41 66 120q26 -30 103 -87zM296 460q11 16 114 40q95 23 95 44q0 20 -73 28q-74 8 -74 52q0 54 43.5 130.5t80.5 76.5q36 0 36 -25q0 -40 -22 -68q-15 15 -40 15
q-19 0 -36 -19t-17 -39q0 -29 80 -39q80 -11 80 -67q0 -41 -23 -79.5t-43.5 -54.5t-67.5 -16q-132 0 -133 21zM724 1452l-110 -110l-110 110l110 109zM618 1239l-108 -109l-110 111l110 109l100 -100l109 108l110 -109l-110 -111z" />
    <glyph glyph-name="uniFBD5" unicode="&#x6ad;" arabic-form="initial" 
d="M1229 1160l-49 -118l-276 -135q-207 -101 -207 -141q0 -36 157 -177q160 -143 193.5 -197.5t33.5 -163.5q0 -152 -47.5 -189.5t-180.5 -38.5h-853v123h415h270q130 0 219 6.5t102 17.5t13 41q0 107 -243 323l-29 26q-132 118 -141.5 133.5t-9.5 47.5q0 45 27.5 97.5
t64.5 84t174 102.5t367 158zM934 1452l-110 -110l-110 110l110 109zM828 1239l-108 -109l-110 111l110 109l100 -100l109 108l110 -109l-110 -111z" />
    <glyph glyph-name="uniFBD6" unicode="&#x6ad;" arabic-form="medial" 
d="M650 123q24 0 57.5 26.5t33.5 67.5q0 91 -227 292l-48 43q-109 98 -120.5 114t-11.5 51q0 44 27.5 97t64.5 84.5t174.5 102.5t366.5 158l-49 -118l-276 -135q-207 -101 -207 -141q0 -32 87 -115q200 -191 253 -273q12 -18 84.5 -112.5t119 -118t92.5 -23.5h158v-123h-29
q-118 0 -190.5 17.5t-129 62.5t-97.5 119q-46 -199 -240 -199h-543v123h650zM734 1452l-110 -110l-110 110l110 109zM628 1239l-108 -109l-110 111l110 109l100 -100l109 108l110 -109l-110 -111z" />
    <glyph glyph-name="uniFBD8" unicode="&#x6c7;" arabic-form="final" 
d="M1229 123v-123h-307q-13 -158 -123.5 -284t-243.5 -126q-76 0 -219.5 30t-143.5 65q0 16 15 16q22 0 87 -12q57 -12 90 -12q88 0 219.5 52t175 92t64.5 71.5t21 110.5q-14 0 -43 -2q-30 -3 -64 -3q-109 0 -156 24.5t-47 103.5q0 106 65 272t139 166q151 0 168 -441h303z
M843 126q0 82 -27.5 189.5t-68.5 107.5q-40 0 -71.5 -85t-31.5 -144q0 -34 18.5 -53.5t98.5 -19.5q15 0 41 2q25 3 41 3zM509 667v13q142 64 197 143q-62 39 -62 88q0 45 44 107.5t83 62.5q23 0 39 -29.5t16 -64.5q0 -51 -32 -115q49 -24 49 -51v-51q-18 0 -54 15
q-44 20 -51 22q-119 -148 -198 -148q-17 0 -31 8zM763 888q17 29 17 61q0 62 -42 62q-39 0 -39 -50q0 -61 64 -73z" />
    <glyph glyph-name="uniFBDA" unicode="&#x6c6;" arabic-form="final" 
d="M1229 123v-123h-307q-13 -158 -123.5 -284t-243.5 -126q-76 0 -219.5 30t-143.5 65q0 16 15 16q22 0 87 -12q57 -12 90 -12q88 0 219.5 52t175 92t64.5 71.5t21 110.5q-14 0 -43 -2q-30 -3 -64 -3q-109 0 -156 24.5t-47 103.5q0 106 65 272t139 166q151 0 168 -441h303z
M843 126q0 82 -27.5 189.5t-68.5 107.5q-40 0 -71.5 -85t-31.5 -144q0 -34 18.5 -53.5t98.5 -19.5q15 0 41 2q25 3 41 3zM871 939q0 -11 -15 -34l-152 -228l-152 228q-15 23 -15 34q0 27 25 27q18 0 35 -26l107 -160l107 160q17 26 35 26q25 0 25 -27z" />
    <glyph glyph-name="uniFBDC" unicode="&#x6c8;" arabic-form="final" 
d="M1229 123v-123h-307q-13 -158 -123.5 -284t-243.5 -126q-76 0 -219.5 30t-143.5 65q0 16 15 16q22 0 87 -12q57 -12 90 -12q88 0 219.5 52t175 92t64.5 71.5t21 110.5q-14 0 -43 -2q-30 -3 -64 -3q-109 0 -156 24.5t-47 103.5q0 106 65 272t139 166q151 0 168 -441h303z
M843 126q0 82 -27.5 189.5t-68.5 107.5q-40 0 -71.5 -85t-31.5 -144q0 -34 18.5 -53.5t98.5 -19.5q15 0 41 2q25 3 41 3zM704 677q0 55 -9 137q-11 104 -11 220l60 110l-1 -102q0 -39 3 -93q4 -64 4 -104q0 -37 -15.5 -98.5t-30.5 -69.5z" />
    <glyph glyph-name="uniFBDF" unicode="&#x6cb;" arabic-form="final" 
d="M1229 123v-123h-307q-13 -158 -123.5 -284t-243.5 -126q-76 0 -219.5 30t-143.5 65q0 16 15 16q22 0 87 -12q57 -12 90 -12q88 0 219.5 52t175 92t64.5 71.5t21 110.5q-14 0 -43 -2q-30 -3 -64 -3q-109 0 -156 24.5t-47 103.5q0 106 65 272t139 166q151 0 168 -441h303z
M843 126q0 82 -27.5 189.5t-68.5 107.5q-40 0 -71.5 -85t-31.5 -144q0 -34 18.5 -53.5t98.5 -19.5q15 0 41 2q25 3 41 3zM810 1051l-110 -110l-110 110l110 109zM704 838l-108 -109l-110 111l110 109l100 -100l109 108l110 -109l-110 -111z" />
    <glyph glyph-name="uniFBE1" unicode="&#x6c5;" arabic-form="final" 
d="M1229 0h-307q-12 -149 -113 -274q-111 -136 -254 -136q-71 0 -202 26q-161 32 -161 69q0 16 15 16q26 0 87 -12t90 -12q88 0 220 52q117 46 164 83q-53 -19 -107 -19q-23 0 -104.5 28.5t-111.5 28.5q-33 0 -69.5 -30t-38.5 -30q-4 2 -4 12q0 59 44.5 99t104.5 40
q24 0 112.5 -28.5t131.5 -28.5q75 0 130 40q8 31 8 79q-18 0 -53.5 -2.5t-53.5 -2.5q-100 0 -139 17q-64 27 -64 111q0 100 57 255q68 183 147 183q151 0 168 -441h303v-123zM843 126q0 73 -21 168q-29 129 -75 129q-42 0 -76 -96q-27 -79 -27 -133q0 -48 37 -63
q23 -10 80 -10q14 0 41 2.5t41 2.5z" />
    <glyph glyph-name="uniFBE3" unicode="&#x6c9;" arabic-form="final" 
d="M1229 123v-123h-307q-13 -158 -123.5 -284t-243.5 -126q-76 0 -219.5 30t-143.5 65q0 16 15 16q22 0 87 -12q57 -12 90 -12q88 0 219.5 52t175 92t64.5 71.5t21 110.5q-14 0 -43 -2q-30 -3 -64 -3q-109 0 -156 24.5t-47 103.5q0 106 65 272t139 166q151 0 168 -441h303z
M843 126q0 82 -27.5 189.5t-68.5 107.5q-40 0 -71.5 -85t-31.5 -144q0 -34 18.5 -53.5t98.5 -19.5q15 0 41 2q25 3 41 3zM871 704q0 -27 -25 -27q-18 0 -35 26l-107 160l-107 -160q-17 -26 -35 -26q-25 0 -25 27q0 12 15 34l152 228l152 -228q15 -22 15 -34z" />
    <glyph glyph-name="uniFBE5" unicode="&#x6d0;" arabic-form="final" 
d="M1229 0q-11 0 -98 20.5t-148 19.5q-165 0 -165 -16q0 -14 36 -21l73 -18q65 -19 65 -75q0 -113 -179 -184q-160 -51 -322 -51q-373 -10 -373 207q0 59 29 146q34 105 77 105q18 0 18 -21q0 6 -27 -82q-19 -59 -19 -106q0 -68 80 -92q79 -32 252 -32q90 0 238 21
q131 26 131 51q0 24 -36 30l-67 17q-71 24 -71 68q0 64 66 117q72 51 203 51q128 -1 237 -32v-123zM598 -501l-81 -60l-79 60l69 50l-77 59l79 60l81 -60l-72 -51z" />
    <glyph glyph-name="uniFBE6" unicode="&#x6d0;" arabic-form="initial" 
d="M0 0v123h885q71 0 146.5 32t75.5 65q0 178 -104 292l68 170q116 -174 116 -366q0 -102 -65 -209t-158 -107h-964zM1088 -450l-111 -110l-109 110l99 100l-107 109l109 110l111 -110l-102 -101z" />
    <glyph glyph-name="uniFBE7" unicode="&#x6d0;" arabic-form="medial" 
d="M1229 0h-76q-108 0 -180.5 12t-122 65.5t-86.5 135.5q-21 -72 -90 -142.5t-133 -70.5h-541v123h526q64 0 121 39.5t57 107.5q0 107 -64 259l83 144q63 -172 63 -268q0 -127 69 -204.5t192 -77.5h182v-123zM888 -450l-111 -110l-109 110l99 100l-107 109l109 110l111 -110
l-102 -101z" />
    <glyph glyph-name="uniFBE8" unicode="&#x649;" arabic-form="initial" 
d="M0 0v123h885q71 0 146.5 32t75.5 65q0 178 -104 292l68 170q116 -174 116 -366q0 -102 -65 -209t-158 -107h-964z" />
    <glyph glyph-name="uniFBE9" unicode="&#x649;" arabic-form="medial" 
d="M1229 0h-76q-108 0 -180.5 12t-122 65.5t-86.5 135.5q-21 -72 -90 -142.5t-133 -70.5h-541v123h526q64 0 121 39.5t57 107.5q0 107 -64 259l83 144q63 -172 63 -268q0 -127 69 -204.5t192 -77.5h182v-123z" />
    <glyph glyph-name="uniFBEA" unicode="&#xfbea;" arabic-form="isolated" 
d="M964 0h-389q-87 0 -138 6t-75 17q-23 10 -49 71q-25 60 -25 160q0 35 1.5 84.5l3.5 115.5t3.5 117.5t1.5 89.5q0 264 -46 383l82 107q19 -54 31 -139t12 -190q0 -41 -0.5 -87.5t-1.5 -94t-3 -94t-4 -88.5q-1 -20 -2 -41t-2 -41t-1.5 -38t-0.5 -31q0 -43 5 -77t18 -58
t35 -36.5t57 -12.5h408q70 0 146 32q76 31 76 65q0 177 -104 292l68 170q116 -175 116 -366q0 -102 -65 -209t-158 -107zM684 759l8 43q23 17 42.5 34t33.5 36q-98 6 -98 90q0 58 39 114t90 56q80 0 80 -73q0 -24 -12 -48q-74 53 -105 53q-51 0 -51 -43q0 -37 52 -68
q53 -32 93 -32q37 0 88 22v-73z" />
    <glyph glyph-name="uniFBEB" unicode="&#xfbeb;" arabic-form="final" 
d="M1229 0h-47q-63 0 -105 53.5t-70 159.5q-15 -73 -66 -143q-26 -35 -59 -52.5t-56 -17.5h-251q-87 0 -138 6t-75 17q-23 10 -49 71q-25 60 -25 160q0 35 1.5 84.5l3.5 115.5t3.5 117.5t1.5 89.5q0 264 -46 383l82 107q19 -54 31 -139t12 -190q0 -41 -0.5 -87.5t-1.5 -94
t-3 -94t-4 -88.5q-1 -20 -2 -41t-2 -41t-1.5 -38t-0.5 -31q0 -43 5 -77t18 -58t35 -36.5t57 -12.5h333q22 0 50.5 9.5t47.5 29.5q39 40 39 108q0 109 -64 259l83 144q63 -173 63 -268q0 -126 41 -205q41 -77 114 -77h45v-123zM706 756l8 43q23 17 42.5 34t33.5 36
q-98 6 -98 90q0 58 39 114t90 56q80 0 80 -73q0 -24 -12 -48q-74 53 -105 53q-51 0 -51 -43q0 -37 52 -68q53 -32 93 -32q37 0 88 22v-73z" />
    <glyph glyph-name="uniFBEC" unicode="&#xfbec;" arabic-form="isolated" 
d="M675 0q-57 0 -90.5 16t-49.5 44q-8 14 -13 27.5t-7 26.5q-3 25 -12 164l-89 -75q-100 4 -165.5 9.5t-97.5 12.5q-62 14 -62 29q0 81 50 158q52 78 347 160q-5 61 -13 102.5t-18 63.5l86 115q10 -172 23 -346.5t30 -354.5q20 -29 58 -29h243q33 0 67 8.5t69 23.5
q76 31 76 65q0 177 -104 292l68 170q116 -175 116 -366q0 -102 -65 -209t-158 -107h-289zM729 759l8 43q23 17 42.5 34t33.5 36q-98 6 -98 90q0 58 39 114t90 56q80 0 80 -73q0 -24 -12 -48q-74 53 -105 53q-51 0 -51 -43q0 -37 52 -68q53 -32 93 -32q37 0 88 22v-73z
M499 348l-9 149q-101 -22 -197 -65q-95 -41 -95 -76q0 -11 18 -17q9 -2 30.5 -5.5t55.5 -7.5t60 -6t44 -2q25 0 93 30z" />
    <glyph glyph-name="uniFBED" unicode="&#xfbed;" arabic-form="final" 
d="M1229 0h-47q-63 0 -105 53.5t-70 159.5q-15 -73 -66 -143q-26 -35 -59 -52.5t-56 -17.5h-193q-57 0 -90.5 16t-49.5 44q-8 14 -13 27.5t-7 26.5q-3 25 -12 164l-89 -75q-100 4 -165.5 9.5t-97.5 12.5q-62 14 -62 29q0 81 50 158q52 78 347 160q-5 61 -13 102.5t-18 63.5
l86 115q10 -172 23 -346.5t30 -354.5q20 -29 58 -29h200q22 0 50.5 9.5t47.5 29.5q39 40 39 108q0 109 -64 259l83 144q63 -173 63 -268q0 -126 41 -205q41 -77 114 -77h45v-123zM788 756l8 43q23 17 42.5 34t33.5 36q-98 6 -98 90q0 58 39 114t90 56q80 0 80 -73
q0 -24 -12 -48q-74 53 -105 53q-51 0 -51 -43q0 -37 52 -68q53 -32 93 -32q37 0 88 22v-73zM448 497q-101 -22 -197 -65q-95 -41 -95 -76q0 -11 18 -17q9 -2 30.5 -5.5t55.5 -7.5t60 -6t44 -2q25 0 93 30z" />
    <glyph glyph-name="uniFBEE" unicode="&#xfbee;" arabic-form="isolated" 
d="M889 123q67 0 142 32q76 31 76 65q0 177 -104 292l68 170q116 -175 116 -366q0 -102 -65 -209t-158 -107h-209q-14 -159 -124 -284q-110 -126 -243 -126q-76 0 -220 30q-143 30 -143 65q0 16 15 16q22 0 87 -12q57 -12 90 -12q90 0 219 52q133 53 175 92q45 42 65 72
q21 31 21 110q-7 0 -18 -0.5t-25 -1.5q-30 -3 -64 -3q-110 0 -156 24q-47 26 -47 104q0 104 65 272q64 166 139 166q151 0 168 -441h130zM676 126q0 82 -27 189q-29 108 -69 108q-41 0 -72 -85q-31 -84 -31 -144q0 -35 18 -54q19 -19 99 -19q8 0 18 0.5t23 1.5q25 3 41 3z
M808 759l8 43q23 17 42.5 34t33.5 36q-98 6 -98 90q0 58 39 114t90 56q80 0 80 -73q0 -24 -12 -48q-74 53 -105 53q-51 0 -51 -43q0 -37 52 -68q53 -32 93 -32q37 0 88 22v-73z" />
    <glyph glyph-name="uniFBEF" unicode="&#xfbef;" arabic-form="final" 
d="M1229 0h-47q-63 0 -105 53.5t-70 159.5q-15 -73 -66 -143q-26 -35 -59 -52.5t-56 -17.5h-151q-12 -159 -109 -284q-98 -126 -216 -126q-68 0 -195 30q-128 30 -128 65q0 16 15 16q20 0 76 -12q49 -12 79 -12q78 0 192 52q115 52 153 92q37 40 57 72q18 31 18 110
q-7 0 -18 -0.5t-25 -1.5q-30 -3 -64 -3q-110 0 -156 24q-47 26 -47 104q0 104 65 272q64 166 139 166q151 0 168 -441h131q22 0 50.5 9.5t47.5 29.5q39 40 39 108q0 109 -64 259l83 144q63 -173 63 -268q0 -126 41 -205q41 -77 114 -77h45v-123zM596 126q0 82 -27 189
q-29 108 -69 108q-41 0 -72 -85q-31 -84 -31 -144q0 -35 18 -54q19 -19 99 -19q8 0 18 0.5t23 1.5q25 3 41 3zM788 756l8 43q23 17 42.5 34t33.5 36q-98 6 -98 90q0 58 39 114t90 56q80 0 80 -73q0 -24 -12 -48q-74 53 -105 53q-51 0 -51 -43q0 -37 52 -68q53 -32 93 -32
q37 0 88 22v-73z" />
    <glyph glyph-name="uniFBF0" unicode="&#xfbf0;" arabic-form="isolated" 
d="M889 123q67 0 142 32q76 31 76 65q0 177 -104 292l68 170q116 -175 116 -366q0 -102 -65 -209t-158 -107h-209q-14 -159 -124 -284q-110 -126 -243 -126q-76 0 -220 30q-143 30 -143 65q0 16 15 16q22 0 87 -12q57 -12 90 -12q90 0 219 52q133 53 175 92q45 42 65 72
q21 31 21 110q-7 0 -18 -0.5t-25 -1.5q-30 -3 -64 -3q-110 0 -156 24q-47 26 -47 104q0 104 65 272q64 166 139 166q151 0 168 -441h130zM676 126q0 82 -27 189q-29 108 -69 108q-41 0 -72 -85q-31 -84 -31 -144q0 -35 18 -54q19 -19 99 -19q8 0 18 0.5t23 1.5q25 3 41 3z
M808 759l8 43q23 17 42.5 34t33.5 36q-98 6 -98 90q0 58 39 114t90 56q80 0 80 -73q0 -24 -12 -48q-74 53 -105 53q-51 0 -51 -43q0 -37 52 -68q53 -32 93 -32q37 0 88 22v-73zM340 668v13q142 64 197 143q-62 39 -62 88q0 45 44 107.5t83 62.5q23 0 39 -29.5t16 -64.5
q0 -51 -32 -115q49 -24 49 -51v-51q-18 0 -54 15q-44 20 -51 22q-119 -148 -198 -148q-17 0 -31 8zM594 889q17 29 17 61q0 62 -42 62q-39 0 -39 -50q0 -61 64 -73z" />
    <glyph glyph-name="uniFBF1" unicode="&#xfbf1;" arabic-form="final" 
d="M1229 0h-47q-63 0 -105 53.5t-70 159.5q-15 -73 -66 -143q-26 -35 -59 -52.5t-56 -17.5h-151q-12 -159 -109 -284q-98 -126 -216 -126q-68 0 -195 30q-128 30 -128 65q0 16 15 16q20 0 76 -12q49 -12 79 -12q78 0 192 52q115 52 153 92q37 40 57 72q18 31 18 110
q-7 0 -18 -0.5t-25 -1.5q-30 -3 -64 -3q-110 0 -156 24q-47 26 -47 104q0 104 65 272q64 166 139 166q151 0 168 -441h131q22 0 50.5 9.5t47.5 29.5q39 40 39 108q0 109 -64 259l83 144q63 -173 63 -268q0 -126 41 -205q41 -77 114 -77h45v-123zM596 126q0 82 -27 189
q-29 108 -69 108q-41 0 -72 -85q-31 -84 -31 -144q0 -35 18 -54q19 -19 99 -19q8 0 18 0.5t23 1.5q25 3 41 3zM788 756l8 43q23 17 42.5 34t33.5 36q-98 6 -98 90q0 58 39 114t90 56q80 0 80 -73q0 -24 -12 -48q-74 53 -105 53q-51 0 -51 -43q0 -37 52 -68q53 -32 93 -32
q37 0 88 22v-73zM258 668v13q142 64 197 143q-62 39 -62 88q0 45 44 107.5t83 62.5q23 0 39 -29.5t16 -64.5q0 -51 -32 -115q49 -24 49 -51v-51q-18 0 -54 15q-44 20 -51 22q-119 -148 -198 -148q-17 0 -31 8zM512 889q17 29 17 61q0 62 -42 62q-39 0 -39 -50q0 -61 64 -73z
" />
    <glyph glyph-name="uniFBF2" unicode="&#xfbf2;" arabic-form="isolated" 
d="M889 123q67 0 142 32q76 31 76 65q0 177 -104 292l68 170q116 -175 116 -366q0 -102 -65 -209t-158 -107h-209q-14 -159 -124 -284q-110 -126 -243 -126q-76 0 -220 30q-143 30 -143 65q0 16 15 16q22 0 87 -12q57 -12 90 -12q90 0 219 52q133 53 175 92q45 42 65 72
q21 31 21 110q-7 0 -18 -0.5t-25 -1.5q-30 -3 -64 -3q-110 0 -156 24q-47 26 -47 104q0 104 65 272q64 166 139 166q151 0 168 -441h130zM676 126q0 82 -27 189q-29 108 -69 108q-41 0 -72 -85q-31 -84 -31 -144q0 -35 18 -54q19 -19 99 -19q8 0 18 0.5t23 1.5q25 3 41 3z
M808 759l8 43q23 17 42.5 34t33.5 36q-98 6 -98 90q0 58 39 114t90 56q80 0 80 -73q0 -24 -12 -48q-74 53 -105 53q-51 0 -51 -43q0 -37 52 -68q53 -32 93 -32q37 0 88 22v-73zM702 940q0 -11 -15 -34l-152 -228l-152 228q-15 23 -15 34q0 27 25 27q18 0 35 -26l107 -160
l107 160q17 26 35 26q25 0 25 -27z" />
    <glyph glyph-name="uniFBF3" unicode="&#xfbf3;" arabic-form="final" 
d="M1229 0h-47q-63 0 -105 53.5t-70 159.5q-15 -73 -66 -143q-26 -35 -59 -52.5t-56 -17.5h-151q-12 -159 -109 -284q-98 -126 -216 -126q-68 0 -195 30q-128 30 -128 65q0 16 15 16q20 0 76 -12q49 -12 79 -12q78 0 192 52q115 52 153 92q37 40 57 72q18 31 18 110
q-7 0 -18 -0.5t-25 -1.5q-30 -3 -64 -3q-110 0 -156 24q-47 26 -47 104q0 104 65 272q64 166 139 166q151 0 168 -441h131q22 0 50.5 9.5t47.5 29.5q39 40 39 108q0 109 -64 259l83 144q63 -173 63 -268q0 -126 41 -205q41 -77 114 -77h45v-123zM596 126q0 82 -27 189
q-29 108 -69 108q-41 0 -72 -85q-31 -84 -31 -144q0 -35 18 -54q19 -19 99 -19q8 0 18 0.5t23 1.5q25 3 41 3zM788 756l8 43q23 17 42.5 34t33.5 36q-98 6 -98 90q0 58 39 114t90 56q80 0 80 -73q0 -24 -12 -48q-74 53 -105 53q-51 0 -51 -43q0 -37 52 -68q53 -32 93 -32
q37 0 88 22v-73zM621 940q0 -11 -15 -34l-152 -228l-152 228q-15 23 -15 34q0 27 25 27q18 0 35 -26l107 -160l107 160q17 26 35 26q25 0 25 -27z" />
    <glyph glyph-name="uniFBF4" unicode="&#xfbf4;" arabic-form="isolated" 
d="M889 123q67 0 142 32q76 31 76 65q0 177 -104 292l68 170q116 -175 116 -366q0 -102 -65 -209t-158 -107h-209q-14 -159 -124 -284q-110 -126 -243 -126q-76 0 -220 30q-143 30 -143 65q0 16 15 16q22 0 87 -12q57 -12 90 -12q90 0 219 52q133 53 175 92q45 42 65 72
q21 31 21 110q-7 0 -18 -0.5t-25 -1.5q-30 -3 -64 -3q-110 0 -156 24q-47 26 -47 104q0 104 65 272q64 166 139 166q151 0 168 -441h130zM676 126q0 82 -27 189q-29 108 -69 108q-41 0 -72 -85q-31 -84 -31 -144q0 -35 18 -54q19 -19 99 -19q8 0 18 0.5t23 1.5q25 3 41 3z
M808 759l8 43q23 17 42.5 34t33.5 36q-98 6 -98 90q0 58 39 114t90 56q80 0 80 -73q0 -24 -12 -48q-74 53 -105 53q-51 0 -51 -43q0 -37 52 -68q53 -32 93 -32q37 0 88 22v-73zM534 678q0 55 -9 137q-11 104 -11 220l60 110l-1 -102q0 -39 3 -93q4 -64 4 -104
q0 -37 -15.5 -98.5t-30.5 -69.5z" />
    <glyph glyph-name="uniFBF5" unicode="&#xfbf5;" arabic-form="final" 
d="M1229 0h-47q-63 0 -105 53.5t-70 159.5q-15 -73 -66 -143q-26 -35 -59 -52.5t-56 -17.5h-151q-12 -159 -109 -284q-98 -126 -216 -126q-68 0 -195 30q-128 30 -128 65q0 16 15 16q20 0 76 -12q49 -12 79 -12q78 0 192 52q115 52 153 92q37 40 57 72q18 31 18 110
q-7 0 -18 -0.5t-25 -1.5q-30 -3 -64 -3q-110 0 -156 24q-47 26 -47 104q0 104 65 272q64 166 139 166q151 0 168 -441h131q22 0 50.5 9.5t47.5 29.5q39 40 39 108q0 109 -64 259l83 144q63 -173 63 -268q0 -126 41 -205q41 -77 114 -77h45v-123zM596 126q0 82 -27 189
q-29 108 -69 108q-41 0 -72 -85q-31 -84 -31 -144q0 -35 18 -54q19 -19 99 -19q8 0 18 0.5t23 1.5q25 3 41 3zM788 756l8 43q23 17 42.5 34t33.5 36q-98 6 -98 90q0 58 39 114t90 56q80 0 80 -73q0 -24 -12 -48q-74 53 -105 53q-51 0 -51 -43q0 -37 52 -68q53 -32 93 -32
q37 0 88 22v-73zM453 678q0 55 -9 137q-11 104 -11 220l60 110l-1 -102q0 -39 3 -93q4 -64 4 -104q0 -37 -15.5 -98.5t-30.5 -69.5z" />
    <glyph glyph-name="uniFBF6" unicode="&#xfbf6;" arabic-form="isolated" 
d="M600 759l8 43q23 17 42.5 34t33.5 36q-98 6 -98 90q0 58 39 114t90 56q80 0 80 -73q0 -24 -12 -48q-74 53 -105 53q-51 0 -51 -43q0 -37 52 -68q53 -32 93 -32q38 0 88 22v-73zM652 37q6 23 13.5 50t16.5 56q117 39 140 68q23 31 23 56q0 113 -103 210l66 173
q114 -116 114 -307q0 -124 -50 -210q194 -29 194 -109q0 -168 -162 -241q-159 -73 -374 -73q-200 0 -289 85q-90 84 -90 208q0 55 45 189q47 134 86 134q20 0 20 -13q0 -7 -32 -100q-31 -90 -31 -150q0 -208 328 -208q66 0 132.5 6t134.5 17q135 22 135 58t-92 65
q-92 28 -225 36zM689 -489l-81 -60l-79 60l69 50l-77 59l79 60l81 -60l-72 -51z" />
    <glyph glyph-name="uniFBF7" unicode="&#xfbf7;" arabic-form="final" 
d="M684 490l8 43q23 17 42.5 34t33.5 36q-98 6 -98 90q0 58 39 114t90 56q80 0 80 -73q0 -24 -12 -48q-74 53 -105 53q-51 0 -51 -43q0 -37 52 -68q53 -32 93 -32q37 0 88 22v-73zM1229 123v-123h-131q-63 0 -94 25q-32 26 -80 111q-45 80 -94 80q-61 0 -157 -63
q-95 -62 -95 -119q0 -35 94 -51q141 -25 183 -44q42 -15 64.5 -42t22.5 -64q0 -43 -58 -141q-57 -98 -194 -134q-69 -18 -134 -27.5t-128 -9.5q-385 0 -385 231q0 83 48 187q47 123 85 123q10 0 10 -15q0 -10 -35 -100q-35 -73 -35 -120q0 -89 71 -136q70 -47 265 -47
q123 0 272 33q148 34 148 88q0 47 -89 65l-144 29q-58 12 -83.5 33.5t-25.5 53.5q0 134 108 263q108 130 234 130q44 0 98 -100q43 -82 74 -99q32 -17 77 -17h108zM689 -644l-81 -60l-79 60l69 50l-77 59l79 60l81 -60l-72 -51z" />
    <glyph glyph-name="uniFBF8" unicode="&#xfbf8;" arabic-form="initial" 
d="M661 0q-63 0 -105 53.5t-70 159.5q-15 -73 -66 -143q-26 -35 -59 -52.5t-56 -17.5h-305v123h289q22 0 50.5 9.5t47.5 29.5q39 40 39 108q0 109 -64 259l83 144q63 -173 63 -268q0 -126 41 -205q41 -77 114 -77h222q70 0 146 32q76 31 76 65q0 177 -104 292l68 170
q116 -175 116 -366q0 -102 -65 -209t-158 -107h-303zM760 759l8 43q23 17 42.5 34t33.5 36q-98 6 -98 90q0 58 39 114t90 56q80 0 80 -73q0 -24 -12 -48q-74 53 -105 53q-51 0 -51 -43q0 -37 52 -68q53 -32 93 -32q37 0 88 22v-73zM576 -450l-111 -110l-109 110l99 100
l-107 109l109 110l111 -110l-102 -101z" />
    <glyph glyph-name="uniFBF9" unicode="&#xfbf9;" arabic-form="isolated" 
d="M600 759l8 43q23 17 42.5 34t33.5 36q-98 6 -98 90q0 58 39 114t90 56q80 0 80 -73q0 -24 -12 -48q-74 53 -105 53q-51 0 -51 -43q0 -37 52 -68q53 -32 93 -32q38 0 88 22v-73zM652 37q6 23 13.5 50t16.5 56q117 39 140 68q23 31 23 56q0 113 -103 210l66 173
q114 -116 114 -307q0 -124 -50 -210q194 -29 194 -109q0 -168 -162 -241q-159 -73 -374 -73q-200 0 -289 85q-90 84 -90 208q0 55 45 189q47 134 86 134q20 0 20 -13q0 -7 -32 -100q-31 -90 -31 -150q0 -208 328 -208q66 0 132.5 6t134.5 17q135 22 135 58t-92 65
q-92 28 -225 36z" />
    <glyph glyph-name="uniFBFA" unicode="&#xfbfa;" arabic-form="final" 
d="M684 490l8 43q23 17 42.5 34t33.5 36q-98 6 -98 90q0 58 39 114t90 56q80 0 80 -73q0 -24 -12 -48q-74 53 -105 53q-51 0 -51 -43q0 -37 52 -68q53 -32 93 -32q37 0 88 22v-73zM1229 123v-123h-131q-63 0 -94 25q-32 26 -80 111q-45 80 -94 80q-61 0 -157 -63
q-95 -62 -95 -119q0 -35 94 -51q141 -25 183 -44q42 -15 64.5 -42t22.5 -64q0 -43 -58 -141q-57 -98 -194 -134q-69 -18 -134 -27.5t-128 -9.5q-385 0 -385 231q0 83 48 187q47 123 85 123q10 0 10 -15q0 -10 -35 -100q-35 -73 -35 -120q0 -89 71 -136q70 -47 265 -47
q123 0 272 33q148 34 148 88q0 47 -89 65l-144 29q-58 12 -83.5 33.5t-25.5 53.5q0 134 108 263q108 130 234 130q44 0 98 -100q43 -82 74 -99q32 -17 77 -17h108z" />
    <glyph glyph-name="uniFBFB" unicode="&#xfbfb;" arabic-form="initial" 
d="M661 0q-63 0 -105 53.5t-70 159.5q-15 -73 -66 -143q-26 -35 -59 -52.5t-56 -17.5h-305v123h289q22 0 50.5 9.5t47.5 29.5q39 40 39 108q0 109 -64 259l83 144q63 -173 63 -268q0 -126 41 -205q41 -77 114 -77h222q70 0 146 32q76 31 76 65q0 177 -104 292l68 170
q116 -175 116 -366q0 -102 -65 -209t-158 -107h-303zM760 759l8 43q23 17 42.5 34t33.5 36q-98 6 -98 90q0 58 39 114t90 56q80 0 80 -73q0 -24 -12 -48q-74 53 -105 53q-51 0 -51 -43q0 -37 52 -68q53 -32 93 -32q37 0 88 22v-73z" />
    <glyph glyph-name="uniFBFD" unicode="&#x6cc;" arabic-form="final" 
d="M1229 0q-44 0 -107 4q-64 4 -140 4q-225 0 -225 -69q0 -16 70 -31q138 -29 169 -54.5t31 -54.5q0 -158 -161.5 -259t-374.5 -101q-199 0 -289 84.5t-90 254.5q0 91 47 207t84 116q18 0 18 -20q0 -16 -22 -54q-51 -91 -51 -177q0 -266 340 -266q125 0 264 34t139 83
q0 50 -126 79q-125 29 -125 70q0 132 81.5 202.5t229.5 70.5h238v-123z" />
    <glyph glyph-name="uniFBFE" unicode="&#x6cc;" arabic-form="initial" 
d="M0 0v123h885q71 0 146.5 32t75.5 65q0 178 -104 292l68 170q116 -174 116 -366q0 -102 -65 -209t-158 -107h-964zM951 -348l-108 -109l-110 111l110 109l100 -100l109 108l110 -109l-110 -111z" />
    <glyph glyph-name="uniFBFF" unicode="&#x6cc;" arabic-form="medial" 
d="M1229 0h-76q-108 0 -180.5 12t-122 65.5t-86.5 135.5q-21 -72 -90 -142.5t-133 -70.5h-541v123h526q64 0 121 39.5t57 107.5q0 107 -64 259l83 144q63 -172 63 -268q0 -127 69 -204.5t192 -77.5h182v-123zM789 -347l-108 -109l-110 111l110 109l100 -100l109 108
l110 -109l-110 -111z" />
    <glyph glyph-name="uniFC08" unicode="&#xfc08;" arabic-form="isolated" 
d="M1049 416q-62 134 -198 134q-158 0 -384 -194q64 -9 176.5 -77.5t167.5 -120.5l-45 -121q-92 61 -184 61q-98 0 -163.5 -42t-65.5 -117q0 -30 27 -124q57 -188 57 -259q0 -17 -27 -67t-39 -50q-13 83 -69 256q-62 169 -62 237q0 217 270 234q-33 27 -89 50q-54 23 -75 42
q19 126 240 274t381 148q57 0 95 -44.5t38 -104.5q0 -80 -51 -115zM1033 -299l-109 -110l-111 110l111 109z" />
    <glyph glyph-name="uniFC09" unicode="&#xfc09;" arabic-form="isolated" 
d="M652 17q12 47 30 106q117 39 140 68.5t23 55.5q0 113 -103 210l66 173q114 -116 114 -307q0 -125 -50 -210q194 -29 194 -109q0 -168 -161.5 -241t-374.5 -73q-199 0 -289 84.5t-90 208.5q0 56 45.5 189.5t85.5 133.5q20 0 20 -13q0 -9 -32 -100q-31 -91 -31 -150
q0 -208 328 -208q132 0 267 22.5t135 58.5t-92 65t-225 36zM1078 -451l-109 -110l-111 110l111 109z" />
    <glyph glyph-name="uniFC0E" unicode="&#xfc0e;" arabic-form="isolated" 
d="M1049 416q-62 134 -198 134q-158 0 -384 -194q64 -9 176.5 -77.5t167.5 -120.5l-45 -121q-92 61 -184 61q-98 0 -163.5 -42t-65.5 -117q0 -30 27 -124q57 -188 57 -259q0 -17 -27 -67t-39 -50q-13 83 -69 256q-62 169 -62 237q0 217 270 234q-33 27 -89 50q-54 23 -75 42
q19 126 240 274t381 148q57 0 95 -44.5t38 -104.5q0 -80 -51 -115zM992 1042l-108 -109l-110 111l110 109l100 -100l109 108l110 -109l-110 -111z" />
    <glyph glyph-name="uniFC12" unicode="&#xfc12;" arabic-form="isolated" 
d="M1049 416q-62 134 -198 134q-158 0 -384 -194q64 -9 176.5 -77.5t167.5 -120.5l-45 -121q-92 61 -184 61q-98 0 -163.5 -42t-65.5 -117q0 -30 27 -124q57 -188 57 -259q0 -17 -27 -67t-39 -50q-13 83 -69 256q-62 169 -62 237q0 217 270 234q-33 27 -89 50q-54 23 -75 42
q19 126 240 274t381 148q57 0 95 -44.5t38 -104.5q0 -80 -51 -115zM1090 1167l-110 -110l-110 110l110 109zM984 954l-108 -109l-110 111l110 109l100 -100l109 108l110 -109l-110 -111z" />
    <glyph glyph-name="uniFC31" unicode="&#xfc31;" arabic-form="isolated" 
d="M659 72q15 43 36 98q81 0 133.5 20.5t73 57t20.5 58.5q-92 -48 -157 -48q-61 0 -115 22.5t-54 59.5q0 112 61 241.5t148 129.5q90 0 140 -113t50 -275q0 -79 -61 -162q137 -43 137 -109q0 -161 -164 -261.5t-370 -100.5q-200 0 -289.5 84t-89.5 212q0 75 45.5 199.5
t85.5 124.5q18 0 18 -17q0 -9 -34 -92q-34 -84 -34 -143q0 -223 335 -223q139 0 270.5 41t131.5 85q0 46 -92 75t-225 36zM884 410q-42 188 -109 188q-48 0 -80 -60t-32 -117q0 -50 96 -50q38 0 125 39zM860 965l-109 -110l-111 110l111 109z" />
    <glyph glyph-name="uniFC32" unicode="&#xfc32;" arabic-form="isolated" 
d="M659 72q15 43 36 98q81 0 133.5 20.5t73 57t20.5 58.5q-92 -48 -157 -48q-61 0 -115 22.5t-54 59.5q0 112 61 241.5t148 129.5q90 0 140 -113t50 -275q0 -79 -61 -162q137 -43 137 -109q0 -161 -164 -261.5t-370 -100.5q-200 0 -289.5 84t-89.5 212q0 75 45.5 199.5
t85.5 124.5q18 0 18 -17q0 -9 -34 -92q-34 -84 -34 -143q0 -223 335 -223q139 0 270.5 41t131.5 85q0 46 -92 75t-225 36zM884 410q-42 188 -109 188q-48 0 -80 -60t-32 -117q0 -50 96 -50q38 0 125 39zM860 965l-109 -110l-111 110l111 109zM568 -452l-108 -109l-110 111
l110 109l100 -100l109 108l110 -109l-110 -111z" />
    <glyph glyph-name="uniFC3F" unicode="&#xfc3f;" arabic-form="isolated" 
d="M1136 -341q0 -77 -166 -153q-146 -67 -237 -67q-280 0 -410 122q-72 74 -99 139q-33 77 -33 149q0 392 617 480q-169 94 -476 94q-19 0 -61 -2q21 41 60 110q52 7 189 15q69 4 89 17q28 19 28 81q0 55 -37 212q-38 162 -63 199q31 44 91 121q35 -55 86 -129
q-17 -41 -56 -94q5 -63 29 -179q22 -108 22 -152q0 -82 -53 -115q308 -140 443 -150l-45 -119q-101 6 -130 6q-199 0 -381 -76q-241 -104 -241 -282q0 -138 105 -224q107 -92 359 -92q83 0 217 44.5t153 44.5zM830 -90l-109 -110l-111 110l111 109z" />
    <glyph glyph-name="uniFC40" unicode="&#xfc40;" arabic-form="isolated" 
d="M1136 -341q0 -77 -166 -153q-146 -67 -237 -67q-280 0 -410 122q-72 74 -99 139q-33 77 -33 149q0 392 617 480q-169 94 -476 94q-19 0 -61 -2q21 41 60 110q52 7 189 15q69 4 89 17q28 19 28 81q0 55 -37 212q-38 162 -63 199q31 44 91 121q35 -55 86 -129
q-17 -41 -56 -94q5 -63 29 -179q22 -108 22 -152q0 -82 -53 -115q308 -140 443 -150l-45 -119q-101 6 -130 6q-199 0 -381 -76q-241 -104 -241 -282q0 -138 105 -224q107 -92 359 -92q83 0 217 44.5t153 44.5z" />
    <glyph glyph-name="uniFC41" unicode="&#xfc41;" arabic-form="isolated" 
d="M1136 -341q0 -77 -166 -153q-146 -67 -237 -67q-280 0 -410 122q-72 74 -99 139q-33 77 -33 149q0 392 617 480q-169 94 -476 94q-19 0 -61 -2q21 41 60 110q52 7 189 15q69 4 89 17q28 19 28 81q0 55 -37 212q-38 162 -63 199q31 44 91 121q35 -55 86 -129
q-17 -41 -56 -94q5 -63 29 -179q22 -108 22 -152q0 -82 -53 -115q308 -140 443 -150l-45 -119q-101 6 -130 6q-199 0 -381 -76q-241 -104 -241 -282q0 -138 105 -224q107 -92 359 -92q83 0 217 44.5t153 44.5zM497 820l-109 -110l-111 110l111 109z" />
    <glyph glyph-name="uniFC42" unicode="&#xfc42;" arabic-form="isolated" 
d="M867 -28q-117 55 -198 55q-104 0 -169 -44.5t-65 -124.5q0 -51 42 -156q30 -86 30 -148q0 -17 -25.5 -66t-42.5 -49q-7 0 -32 101q-18 64 -36 119q-52 134 -52 202q0 105 70.5 166.5t201.5 61.5q-13 12 -85 41q-62 24 -62 46q0 17 9.5 37.5t28 42.5t24 25.5t62.5 27.5
q38 16 54.5 42.5t16.5 81.5q0 36 -44 311t-74 319q28 46 84 129q28 -49 88 -131q-22 -40 -57 -100q61 -456 80 -536q4 -20 4 -44q0 -101 -42 -138q80 -28 165.5 -82t85.5 -70q0 -24 -21 -62.5t-41 -56.5z" />
    <glyph glyph-name="uniFC43" unicode="&#xfc43;" arabic-form="isolated" 
d="M646 35q13 42 32 96q105 9 105 137q0 18 -2 36l-42 354q-29 198 -81 295q27 44 84 129q41 -87 88 -131l-42 -97q71 -498 71 -571q0 -97 -51 -142q163 -29 207 -54.5t44 -64.5q0 -152 -161.5 -242t-374.5 -90q-199 0 -289 84.5t-90 226.5q0 56 45.5 189.5t85.5 133.5
q17 0 17 -19q0 -9 -34 -88t-34 -138q0 -244 336 -244q78 0 240.5 22.5t162.5 66.5q0 46 -92 75t-225 36z" />
    <glyph glyph-name="uniFC44" unicode="&#xfc44;" arabic-form="isolated" 
d="M646 35q13 42 32 96q105 9 105 137q0 18 -2 36l-42 354q-29 198 -81 295q27 44 84 129q41 -87 88 -131l-42 -97q71 -498 71 -571q0 -97 -51 -142q163 -29 207 -54.5t44 -64.5q0 -152 -161.5 -242t-374.5 -90q-199 0 -289 84.5t-90 226.5q0 56 45.5 189.5t85.5 133.5
q17 0 17 -19q0 -9 -34 -88t-34 -138q0 -244 336 -244q78 0 240.5 22.5t162.5 66.5q0 46 -92 75t-225 36zM541 -452l-108 -109l-110 111l110 109l100 -100l109 108l110 -109l-110 -111z" />
    <glyph glyph-name="uniFC4E" unicode="&#xfc4e;" arabic-form="isolated" 
d="M1049 416q-62 134 -198 134q-158 0 -384 -194q64 -9 176.5 -77.5t167.5 -120.5l-45 -121q-92 61 -184 61q-98 0 -163.5 -42t-65.5 -117q0 -30 27 -124q57 -188 57 -259q0 -17 -27 -67t-39 -50q-13 83 -69 256q-62 169 -62 237q0 217 270 234q-33 27 -89 50q-54 23 -75 42
q19 126 240 274t381 148q57 0 95 -44.5t38 -104.5q0 -80 -51 -115zM1084 1042l-109 -110l-111 110l111 109z" />
    <glyph glyph-name="uniFC4F" unicode="&#xfc4f;" arabic-form="isolated" 
d="M652 17q12 47 30 106q117 39 140 68.5t23 55.5q0 113 -103 210l66 173q114 -116 114 -307q0 -125 -50 -210q194 -29 194 -109q0 -168 -161.5 -241t-374.5 -73q-199 0 -289 84.5t-90 208.5q0 56 45.5 189.5t85.5 133.5q20 0 20 -13q0 -9 -32 -100q-31 -91 -31 -150
q0 -208 328 -208q132 0 267 22.5t135 58.5t-92 65t-225 36zM776 892l-109 -110l-111 110l111 109z" />
    <glyph glyph-name="uniFC58" unicode="&#xfc58;" arabic-form="isolated" 
d="M1049 416q-62 134 -198 134q-158 0 -384 -194q64 -9 176.5 -77.5t167.5 -120.5l-45 -121q-92 61 -184 61q-98 0 -163.5 -42t-65.5 -117q0 -30 27 -124q57 -188 57 -259q0 -17 -27 -67t-39 -50q-13 83 -69 256q-62 169 -62 237q0 217 270 234q-33 27 -89 50q-54 23 -75 42
q19 126 240 274t381 148q57 0 95 -44.5t38 -104.5q0 -80 -51 -115zM941 -289l-108 -109l-110 111l110 109l100 -100l109 108l110 -109l-110 -111z" />
    <glyph glyph-name="uniFC59" unicode="&#xfc59;" arabic-form="isolated" 
d="M652 17q12 47 30 106q117 39 140 68.5t23 55.5q0 113 -103 210l66 173q114 -116 114 -307q0 -125 -50 -210q194 -29 194 -109q0 -168 -161.5 -241t-374.5 -73q-199 0 -289 84.5t-90 208.5q0 56 45.5 189.5t85.5 133.5q20 0 20 -13q0 -9 -32 -100q-31 -91 -31 -150
q0 -208 328 -208q132 0 267 22.5t135 58.5t-92 65t-225 36zM902 -452l-108 -109l-110 111l110 109l100 -100l109 108l110 -109l-110 -111z" />
    <glyph glyph-name="uniFC5E" unicode="&#xfc5e;" arabic-form="isolated" 
d="M418 1530v12q7 4 31 21q24 37 24 96q0 37 -22 37q-9 0 -30 -19q-21 -18 -25 -18q-9 0 -9 7q0 20 35.5 53.5t63.5 33.5q42 0 42 -52q0 -46 -36 -120q74 34 127 109q-58 30 -58 92q0 50 46 108t81 58q24 0 40 -28t16 -64q0 -62 -37 -117q47 -24 47 -49l-4 -47
q-34 0 -101 31q-36 -55 -96.5 -102.5t-105.5 -47.5q-19 0 -29 6zM674 1755q18 32 18 64q0 59 -43 59q-36 0 -36 -47q0 -55 61 -76zM616 1370q-43 -86 -92 -86q-66 0 -66 94q0 82 29 82q13 0 13 -14q0 -5 -2 -17q-2 -13 -2 -20q0 -27 28 -27q43 0 60 66q17 65 22 65
q11 0 16 -35q4 -37 39 -37q32 0 39 63q7 65 18 65q31 0 31 -109q1 -51 -25.5 -87t-62.5 -36q-30 0 -45 33z" />
    <glyph glyph-name="uniFC5F" unicode="&#xfc5f;" arabic-form="isolated" 
d="M627 1673q-42 -84 -92 -84q-66 0 -66 84q0 26 8.5 54t18.5 28q11 0 11 -15q0 -5 -2 -18q-2 -14 -2 -20q0 -27 28 -27q43 0 61 66q17 67 24 67q9 0 15 -36t41 -36q32 0 39 63q7 64 18 64q27 0 27 -106q0 -46 -29 -80.5t-57 -34.5q-30 0 -43 31zM496 1419q-13 -5 -13 25
q0 24 15 30l248 105q9 0 11.5 -3.5t2.5 -17.5q0 -27 -14 -33zM496 1259q-12 -5 -12 24q0 25 14 31l248 107q9 0 11.5 -4t2.5 -18q0 -27 -14 -33z" />
    <glyph glyph-name="uniFC60" unicode="&#xfc60;" arabic-form="isolated" 
d="M472 1520q-13 -5 -13 25q0 25 13 30l248 106q9 0 11.5 -4t2.5 -18q0 -27 -14 -33zM613 1368q-39 -86 -90 -86q-68 0 -68 92q0 84 29 84q13 0 13 -16q0 -5 -1 -17q-2 -13 -2 -20q0 -27 27 -27q43 0 61 67q18 66 19 66q15 0 19 -36q4 -37 37 -37q34 0 41 65q8 64 18 64
q30 0 30 -109q0 -51 -26 -87.5t-60 -37.5q-27 0 -47 35z" />
    <glyph glyph-name="uniFC61" unicode="&#xfc61;" arabic-form="isolated" 
d="M424 1533v13q143 65 197 143q-59 37 -59 90q1 45 44 106.5t81 61.5q23 0 40 -29t17 -65q0 -49 -35 -115q49 -23 49 -51v-49q-26 0 -104 37q-117 -150 -199 -150q-16 0 -31 8zM678 1753q17 31 17 63q0 61 -41 61q-39 0 -39 -51q0 -60 63 -73zM616 1368q-43 -86 -92 -86
q-66 0 -66 94q0 84 29 84q13 0 13 -16q0 -5 -2 -17q-2 -13 -2 -20q0 -27 28 -27q43 0 60 66q18 67 20 67q14 0 18 -37t39 -37q32 0 39 63q7 64 18 64q31 0 31 -108q1 -51 -25.5 -87t-62.5 -36q-30 0 -45 33z" />
    <glyph glyph-name="uniFC62" unicode="&#xfc62;" arabic-form="isolated" 
d="M616 1512q-42 -84 -92 -84q-66 0 -66 84q0 26 8.5 54t18.5 28q11 0 11 -15q0 -5 -2 -18q-2 -14 -2 -20q0 -27 28 -27q43 0 61 66q17 67 24 67q10 0 15 -36q6 -36 41 -36q32 0 39 63q7 64 18 64q27 0 27 -106q0 -46 -29 -80.5t-57 -34.5q-29 0 -43 31zM485 1258
q-13 -5 -13 25q0 24 15 30l248 105q9 0 11.5 -3.5t2.5 -17.5q0 -27 -14 -33z" />
    <glyph glyph-name="uniFC63" unicode="&#xfc63;" arabic-form="isolated" 
d="M613 874q-39 -86 -90 -86q-68 0 -68 92q0 42 9.5 63t19.5 21q13 0 13 -16v-6.5t-1 -10.5q-1 -7 -1.5 -11.5t-0.5 -7.5q0 -28 27 -28q43 0 61 67q7 33 10 49.5t9 16.5q14 0 19 -36q4 -37 37 -37t41 65q7 64 18 64q30 0 30 -109q0 -50 -26 -88q-25 -37 -60 -37
q-27 0 -47 35zM592 1054q-2 26 -7 65.5t-13 71.5l-19 84l50 86l21 -117q8 -38 8 -64q0 -28 -4.5 -49.5t-11 -37t-13.5 -25.5t-11 -14z" />
    <glyph glyph-name="uniFC6A" unicode="&#xfc6a;" arabic-form="final" 
d="M972 331q-55 -116 -155 -116v-25q0 -160 -54 -297.5t-158.5 -228.5t-197.5 -91q-111 0 -170 18l-184 56q-53 16 -53 41q0 26 34 26q18 0 88 -16q70 -15 136 -15q121 0 249 83.5t191 182t63 144.5q1 98 -29 182.5t-125 180.5l63 170q103 -96 136 -295q15 -3 30 -3
q139 0 169 252q4 37 26 37q15 0 15 -37q0 -269 28 -363t126 -94h29v-123h-23q-101 0 -156.5 50t-77.5 281zM1108 -314l-109 -110l-111 110l111 109z" />
    <glyph glyph-name="uniFC6D" unicode="&#xfc6d;" arabic-form="final" 
d="M1229 0h-49q-116 0 -174.5 70.5t-79.5 287.5q-25 -54 -78.5 -96.5t-104.5 -42.5q5 -46 5 -94q0 -239 -107.5 -373.5t-308.5 -134.5q-125 0 -214 88.5t-89 241.5q0 185 61.5 346t100.5 161q20 0 20 -22q0 -19 -40 -121q-56 -147 -56 -284q0 -106 65.5 -187.5t161.5 -81.5
q124 0 226 69.5t102 188.5q0 125 -64 303l74 164q39 -74 53 -149q13 -2 26 -2q175 0 204 248q4 37 26 37q15 0 15 -37q0 -249 32 -353t138 -104h55v-123zM546 802l-109 -110l-111 110l111 109zM1083 -292l-109 -110l-111 110l111 109z" />
    <glyph glyph-name="uniFC6E" unicode="&#xfc6e;" arabic-form="final" 
d="M1229 123v-123h-131q-62 0 -94 25.5t-80 110.5q-45 80 -94 80q-61 0 -156.5 -62.5t-95.5 -119.5q0 -34 94 -51q143 -26 183.5 -44t63.5 -50.5t23 -76.5q0 -51 -57.5 -168t-194.5 -161t-262 -44q-385 0 -385 276q0 100 48 224t85 123q10 0 10 -15q0 -11 -35 -100
q-35 -90 -35 -149q0 -110 71.5 -168t264.5 -58q124 -1 272 45.5t148 122.5q0 64 -89 90l-144 29q-58 12 -83.5 33.5t-25.5 53.5q0 134 108 263.5t234 129.5q44 0 98 -100q44 -82 74.5 -99t76.5 -17h108zM1228 -302l-109 -110l-111 110l111 109z" />
    <glyph glyph-name="uniFC6F" unicode="&#xfc6f;" arabic-form="final" 
d="M1229 123v-123h-131q-68 0 -108 38q-24 22 -66 98q-47 82 -110 82q-60 0 -139 -31q-95 -39 -95 -89q0 -27 91 -47q149 -33 184 -44q87 -28 87 -147q0 -88 -195 -171q-152 -64 -320 -64q-384 0 -384 234q0 56 32 127q37 79 81 79q15 0 15 -21q0 4 -33 -60t-33 -108
q0 -80 102 -111q123 -27 244 -27q101 0 264 29q157 37 157 72q0 30 -16.5 43t-63.5 24l-143 32q-120 28 -120 106q0 114 117 207q110 88 225 88q45 0 99 -100q35 -65 57 -85q34 -31 94 -31h108zM1228 -301l-109 -111l-111 111l111 109zM434 -479l-81 -82l-82 83l82 82
l75 -75l82 81l83 -82l-83 -83z" />
    <glyph glyph-name="uniFC70" unicode="&#xfc70;" arabic-form="final" 
d="M972 331q-55 -116 -155 -116v-25q0 -160 -54 -297.5t-158.5 -228.5t-197.5 -91q-111 0 -170 18l-184 56q-53 16 -53 41q0 26 34 26q18 0 88 -16q70 -15 136 -15q121 0 249 83.5t191 182t63 144.5q1 98 -29 182.5t-125 180.5l63 170q103 -96 136 -295q15 -3 30 -3
q139 0 169 252q4 37 26 37q15 0 15 -37q0 -269 28 -363t126 -94h29v-123h-23q-101 0 -156.5 50t-77.5 281zM1012 967l-108 -109l-110 111l110 109l100 -100l109 108l110 -109l-110 -111z" />
    <glyph glyph-name="uniFC73" unicode="&#xfc73;" arabic-form="final" 
d="M1229 0h-49q-116 0 -174.5 70.5t-79.5 287.5q-25 -54 -78.5 -96.5t-104.5 -42.5q5 -46 5 -94q0 -239 -107.5 -373.5t-308.5 -134.5q-125 0 -214 88.5t-89 241.5q0 185 61.5 346t100.5 161q20 0 20 -22q0 -19 -40 -121q-56 -147 -56 -284q0 -106 65.5 -187.5t161.5 -81.5
q124 0 226 69.5t102 188.5q0 125 -64 303l74 164q39 -74 53 -149q13 -2 26 -2q175 0 204 248q4 37 26 37q15 0 15 -37q0 -249 32 -353t138 -104h55v-123zM546 882l-109 -110l-111 110l111 109zM994 945l-108 -109l-110 111l110 109l100 -100l109 108l110 -109l-110 -111z
" />
    <glyph glyph-name="uniFC74" unicode="&#xfc74;" arabic-form="final" 
d="M1229 123v-123h-131q-62 0 -94 25.5t-80 110.5q-45 80 -94 80q-61 0 -156.5 -62.5t-95.5 -119.5q0 -34 94 -51q143 -26 183.5 -44t63.5 -50.5t23 -76.5q0 -51 -57.5 -168t-194.5 -161t-262 -44q-385 0 -385 276q0 100 48 224t85 123q10 0 10 -15q0 -11 -35 -100
q-35 -90 -35 -149q0 -110 71.5 -168t264.5 -58q124 -1 272 45.5t148 122.5q0 64 -89 90l-144 29q-58 12 -83.5 33.5t-25.5 53.5q0 134 108 263.5t234 129.5q44 0 98 -100q44 -82 74.5 -99t76.5 -17h108zM894 611l-108 -109l-110 111l110 109l100 -100l109 108l110 -109
l-110 -111z" />
    <glyph glyph-name="uniFC75" unicode="&#xfc75;" arabic-form="final" 
d="M894 611l-108 -109l-110 111l110 110l100 -101l109 109l110 -110l-110 -111zM1229 123v-123h-131q-68 0 -108 38q-24 22 -66 98q-47 82 -110 82q-60 0 -139 -31q-95 -39 -95 -89q0 -27 91 -47q149 -33 184 -44q87 -28 87 -147q0 -88 -195 -171q-152 -64 -320 -64
q-384 0 -384 234q0 56 32 127q37 79 81 79q15 0 15 -21q0 4 -33 -60t-33 -108q0 -80 102 -111q123 -27 244 -27q101 0 264 29q157 37 157 72q0 30 -16.5 43t-63.5 24l-143 32q-120 28 -120 106q0 114 117 207q110 88 225 88q45 0 99 -100q35 -65 57 -85q34 -31 94 -31h108z
M434 -479l-81 -82l-82 83l82 82l75 -75l82 81l83 -82l-83 -83z" />
    <glyph glyph-name="uniFC8E" unicode="&#xfc8e;" arabic-form="final" 
d="M1229 123v-123h-131q-62 0 -94 25.5t-80 110.5q-45 80 -94 80q-61 0 -156.5 -62.5t-95.5 -119.5q0 -34 94 -51q143 -26 183.5 -44t63.5 -50.5t23 -76.5q0 -51 -57.5 -168t-194.5 -161t-262 -44q-385 0 -385 276q0 100 48 224t85 123q10 0 10 -15q0 -11 -35 -100
q-35 -90 -35 -149q0 -110 71.5 -168t264.5 -58q124 -1 272 45.5t148 122.5q0 64 -89 90l-144 29q-58 12 -83.5 33.5t-25.5 53.5q0 134 108 263.5t234 129.5q44 0 98 -100q44 -82 74.5 -99t76.5 -17h108zM971 621l-109 -110l-111 110l111 109z" />
    <glyph glyph-name="uniFC8F" unicode="&#xfc8f;" arabic-form="final" 
d="M971 622l-109 -111l-111 111l111 109zM1229 123v-123h-131q-68 0 -108 38q-24 22 -66 98q-47 82 -110 82q-60 0 -139 -31q-95 -39 -95 -89q0 -27 91 -47q149 -33 184 -44q87 -28 87 -147q0 -88 -195 -171q-152 -64 -320 -64q-384 0 -384 234q0 56 32 127q37 79 81 79
q15 0 15 -21q0 4 -33 -60t-33 -108q0 -80 102 -111q123 -27 244 -27q101 0 264 29q157 37 157 72q0 30 -16.5 43t-63.5 24l-143 32q-120 28 -120 106q0 114 117 207q110 88 225 88q45 0 99 -100q35 -65 57 -85q34 -31 94 -31h108zM434 -479l-81 -82l-82 83l82 82l75 -75
l82 81l83 -82l-83 -83z" />
    <glyph glyph-name="uniFC91" unicode="&#xfc91;" arabic-form="final" 
d="M972 331q-55 -116 -155 -116v-25q0 -160 -54 -297.5t-158.5 -228.5t-197.5 -91q-111 0 -170 18l-184 56q-53 16 -53 41q0 26 34 26q18 0 88 -16q70 -15 136 -15q121 0 249 83.5t191 182t63 144.5q1 98 -29 182.5t-125 180.5l63 170q103 -96 136 -295q15 -3 30 -3
q139 0 169 252q4 37 26 37q15 0 15 -37q0 -269 28 -363t126 -94h29v-123h-23q-101 0 -156.5 50t-77.5 281zM934 -323l-108 -109l-110 111l110 109l100 -100l109 108l110 -109l-110 -111z" />
    <glyph glyph-name="uniFC94" unicode="&#xfc94;" arabic-form="final" 
d="M1229 0h-49q-116 0 -174.5 70.5t-79.5 287.5q-25 -54 -78.5 -96.5t-104.5 -42.5q5 -46 5 -94q0 -239 -107.5 -373.5t-308.5 -134.5q-125 0 -214 88.5t-89 241.5q0 185 61.5 346t100.5 161q20 0 20 -22q0 -19 -40 -121q-56 -147 -56 -284q0 -106 65.5 -187.5t161.5 -81.5
q124 0 226 69.5t102 188.5q0 125 -64 303l74 164q39 -74 53 -149q13 -2 26 -2q175 0 204 248q4 37 26 37q15 0 15 -37q0 -249 32 -353t138 -104h55v-123zM546 882l-109 -110l-111 110l111 109zM1000 -414l-108 -109l-110 111l110 109l100 -100l109 108l110 -109l-110 -111z
" />
    <glyph glyph-name="uniFC9C" unicode="&#xfc9c;" arabic-form="initial" 
d="M1196 397l-45 -121h-96q-51 0 -123.5 -7.5t-114.5 -27t-151 -93.5q-107 -71 -179 -109.5t-310 -38.5h-177v123h355q76 0 248 103q193 116 247 130q-67 45 -220 84t-247 39q30 48 53 113q64 1 128.5 32.5t119 82t159.5 164.5q89 96 130 96q56 0 96 -73.5t40 -181.5
q0 -47 -4 -69t-24 -22q-17 0 -20 22q-12 87 -17.5 117t-23.5 52t-47 22q-64 0 -155 -108q-109 -128 -189 -163q115 -60 281 -112t286 -54zM1100 -147l-109 -110l-111 110l111 109zM499 -337l-109 -110l-111 110l111 109z" />
    <glyph glyph-name="uniFC9D" unicode="&#xfc9d;" arabic-form="initial" 
d="M1196 397l-45 -121h-96q-51 0 -123.5 -7.5t-114.5 -27t-151 -93.5q-107 -71 -179 -109.5t-310 -38.5h-177v123h355q76 0 248 103q193 116 247 130q-67 45 -220 84t-247 39q30 48 53 113q64 1 128.5 32.5t119 82t159.5 164.5q89 96 130 96q56 0 96 -73.5t40 -181.5
q0 -47 -4 -69t-24 -22q-17 0 -20 22q-12 87 -17.5 117t-23.5 52t-47 22q-64 0 -155 -108q-109 -128 -189 -163q115 -60 281 -112t286 -54zM1144 -147l-109 -110l-111 110l111 109z" />
    <glyph glyph-name="uniFC9E" unicode="&#xfc9e;" arabic-form="initial" 
d="M1196 397l-45 -121h-96q-51 0 -123.5 -7.5t-114.5 -27t-151 -93.5q-107 -71 -179 -109.5t-310 -38.5h-177v123h355q76 0 248 103q193 116 247 130q-67 45 -220 84t-247 39q30 48 53 113q64 1 128.5 32.5t119 82t159.5 164.5q89 96 130 96q56 0 96 -73.5t40 -181.5
q0 -47 -4 -69t-24 -22q-17 0 -20 22q-12 87 -17.5 117t-23.5 52t-47 22q-64 0 -155 -108q-109 -128 -189 -163q115 -60 281 -112t286 -54zM465 887l-109 -110l-111 110l111 109zM1078 -136l-109 -110l-111 110l111 109z" />
    <glyph glyph-name="uniFC9F" unicode="&#xfc9f;" arabic-form="initial" 
d="M1108 748q-5 -40 -47 -111q-46 60 -143 60q-84 0 -165 -80t-81 -184q0 -158 293 -263l-58 -115q-100 60 -178 60t-193 -60q-67 -35 -133 -45t-222 -10h-181v123h353q106 0 181 32q90 40 125 50q-61 92 -61 243q0 119 125 251.5t245 132.5q103 0 140 -84zM1097 -312
l-109 -110l-111 110l111 109z" />
    <glyph glyph-name="uniFCA0" unicode="&#xfca0;" arabic-form="initial" 
d="M600 -23q78 -74 78 -131q0 -98 -61.5 -184t-131.5 -86q-76 0 -122.5 83.5t-47.5 193.5q0 33 13 77q-43 -23 -111 -39q7 57 41 138q-80 -29 -215 -29h-43v123h102q178 0 236 31q108 212 215.5 352.5t163.5 140.5q78 0 78 -119q0 -166 -43.5 -252t-235.5 -194
q131 45 370 45q72 0 146.5 30t74.5 63q0 178 -104 292l68 170q116 -174 116 -366q0 -75 -36 -154q-28 -62 -60 -98t-67 -51q-27 -12 -118 -13q-180 -3 -306 -23zM416 166q130 29 227.5 131.5t97.5 151.5q0 75 -43 75q-52 0 -99.5 -49t-182.5 -309zM395 -18q-19 -76 -19 -132
q0 -149 126 -149q100 0 100 78q0 57 -71.5 127.5t-135.5 75.5zM1090 -370l-109 -110l-111 110l111 109z" />
    <glyph glyph-name="uniFCA1" unicode="&#xfca1;" arabic-form="initial" 
d="M1196 397l-45 -121h-96q-51 0 -123.5 -7.5t-114.5 -27t-151 -93.5q-107 -71 -179 -109.5t-310 -38.5h-177v123h355q76 0 248 103q193 116 247 130q-67 45 -220 84t-247 39q30 48 53 113q64 1 128.5 32.5t119 82t159.5 164.5q89 96 130 96q56 0 96 -73.5t40 -181.5
q0 -47 -4 -69t-24 -22q-17 0 -20 22q-12 87 -17.5 117t-23.5 52t-47 22q-64 0 -155 -108q-109 -128 -189 -163q115 -60 281 -112t286 -54zM984 1249l-108 -109l-110 111l110 109l100 -100l109 108l110 -109l-110 -111zM918 -316l-109 -110l-111 110l111 109z" />
    <glyph glyph-name="uniFCA2" unicode="&#xfca2;" arabic-form="initial" 
d="M1196 397l-45 -121h-96q-51 0 -123.5 -7.5t-114.5 -27t-151 -93.5q-107 -71 -179 -109.5t-310 -38.5h-177v123h355q76 0 248 103q193 116 247 130q-67 45 -220 84t-247 39q30 48 53 113q64 1 128.5 32.5t119 82t159.5 164.5q89 96 130 96q56 0 96 -73.5t40 -181.5
q0 -47 -4 -69t-24 -22q-17 0 -20 22q-12 87 -17.5 117t-23.5 52t-47 22q-64 0 -155 -108q-109 -128 -189 -163q115 -60 281 -112t286 -54zM984 1249l-108 -109l-110 111l110 109l100 -100l109 108l110 -109l-110 -111z" />
    <glyph glyph-name="uniFCA3" unicode="&#xfca3;" arabic-form="initial" 
d="M1196 397l-45 -121h-96q-51 0 -123.5 -7.5t-114.5 -27t-151 -93.5q-107 -71 -179 -109.5t-310 -38.5h-177v123h355q76 0 248 103q193 116 247 130q-67 45 -220 84t-247 39q30 48 53 113q64 1 128.5 32.5t119 82t159.5 164.5q89 96 130 96q56 0 96 -73.5t40 -181.5
q0 -47 -4 -69t-24 -22q-17 0 -20 22q-12 87 -17.5 117t-23.5 52t-47 22q-64 0 -155 -108q-109 -128 -189 -163q115 -60 281 -112t286 -54zM465 865l-109 -110l-111 110l111 109zM984 1249l-108 -109l-110 111l110 109l100 -100l109 108l110 -109l-110 -111z" />
    <glyph glyph-name="uniFCA4" unicode="&#xfca4;" arabic-form="initial" 
d="M1108 748q-5 -40 -47 -111q-46 60 -143 60q-84 0 -165 -80t-81 -184q0 -158 293 -263l-58 -115q-100 60 -178 60t-193 -60q-67 -35 -133 -45t-222 -10h-181v123h353q106 0 181 32q90 40 125 50q-61 92 -61 243q0 119 125 251.5t245 132.5q103 0 140 -84zM917 1079
l-108 -109l-110 111l110 109l100 -100l109 108l110 -109l-110 -111z" />
    <glyph glyph-name="uniFCA5" unicode="&#xfca5;" arabic-form="initial" 
d="M600 -23q78 -74 78 -131q0 -98 -61.5 -184t-131.5 -86q-76 0 -122.5 83.5t-47.5 193.5q0 33 13 77q-43 -23 -111 -39q7 57 41 138q-80 -29 -215 -29h-43v123h102q178 0 236 31q108 212 215.5 352.5t163.5 140.5q78 0 78 -119q0 -166 -43.5 -252t-235.5 -194
q131 45 370 45q72 0 146.5 30t74.5 63q0 178 -104 292l68 170q116 -174 116 -366q0 -75 -36 -154q-28 -62 -60 -98t-67 -51q-27 -12 -118 -13q-180 -3 -306 -23zM416 166q130 29 227.5 131.5t97.5 151.5q0 75 -43 75q-52 0 -99.5 -49t-182.5 -309zM395 -18q-19 -76 -19 -132
q0 -149 126 -149q100 0 100 78q0 57 -71.5 127.5t-135.5 75.5zM1007 984l-108 -109l-110 111l110 109l100 -100l109 108l110 -109l-110 -111z" />
    <glyph glyph-name="uniFCA6" unicode="&#xfca6;" arabic-form="initial" 
d="M1108 748q-5 -40 -47 -111q-46 60 -143 60q-84 0 -165 -80t-81 -184q0 -158 293 -263l-58 -115q-100 60 -178 60t-193 -60q-67 -35 -133 -45t-222 -10h-181v123h353q106 0 181 32q90 40 125 50q-61 92 -61 243q0 119 125 251.5t245 132.5q103 0 140 -84zM1022 1291
l-110 -110l-110 110l110 109zM916 1078l-108 -109l-110 111l110 109l100 -100l109 108l110 -109l-110 -111z" />
    <glyph glyph-name="uniFCA8" unicode="&#xfca8;" arabic-form="initial" 
d="M423 -6q-73 65 -166 121q-90 -83 -133.5 -99t-87.5 -16h-36v123h29q79 0 127 17t65.5 50t71.5 181q67 185 174 244.5t474 105.5q-61 41 -158.5 76.5t-157.5 35.5q-76 0 -121 -67q-9 -13 -21 -13q-8 0 -8 18q0 54 56.5 114.5t141.5 60.5q30 0 64.5 -9t54.5 -18.5
t145 -78.5q165 -91 291 -91l-51 -126q-511 0 -621 -117q30 -13 55 -64.5t25 -108.5q0 -85 -20 -162t-96.5 -127t-96.5 -50zM305 219q107 -56 192 -130q53 73 53 175q0 149 -90 149q-69 0 -155 -194zM1007 233l-109 -110l-111 110l111 109z" />
    <glyph glyph-name="uniFCAA" unicode="&#xfcaa;" arabic-form="initial" 
d="M423 -6q-73 65 -166 121q-90 -83 -133.5 -99t-87.5 -16h-36v123h29q79 0 127 17t65.5 50t71.5 181q67 185 174 244.5t474 105.5q-61 41 -158.5 76.5t-157.5 35.5q-76 0 -121 -67q-9 -13 -21 -13q-8 0 -8 18q0 54 56.5 114.5t141.5 60.5q30 0 64.5 -9t54.5 -18.5
t145 -78.5q165 -91 291 -91l-51 -126q-511 0 -621 -117q30 -13 55 -64.5t25 -108.5q0 -85 -20 -162t-96.5 -127t-96.5 -50zM305 219q107 -56 192 -130q53 73 53 175q0 149 -90 149q-69 0 -155 -194z" />
    <glyph glyph-name="uniFCAC" unicode="&#xfcac;" arabic-form="initial" 
d="M423 -6q-73 65 -166 121q-90 -83 -133.5 -99t-87.5 -16h-36v123h29q79 0 127 17t65.5 50t71.5 181q67 185 174 244.5t474 105.5q-61 41 -158.5 76.5t-157.5 35.5q-76 0 -121 -67q-9 -13 -21 -13q-8 0 -8 18q0 54 56.5 114.5t141.5 60.5q30 0 64.5 -9t54.5 -18.5
t145 -78.5q165 -91 291 -91l-51 -126q-511 0 -621 -117q30 -13 55 -64.5t25 -108.5q0 -85 -20 -162t-96.5 -127t-96.5 -50zM305 219q107 -56 192 -130q53 73 53 175q0 149 -90 149q-69 0 -155 -194zM984 1159l-109 -110l-111 110l111 109z" />
    <glyph glyph-name="uniFCB0" unicode="&#xfcb0;" arabic-form="initial" 
d="M1090 933l84 116q22 -34 38 -127.5t16 -171.5q0 -306 -221 -306q-68 0 -92 52q-62 -142 -208 -142q-45 0 -82 30.5t-107 132.5q-39 57 -60 57q-61 0 -94 -47t-33 -111q0 -38 19.5 -71.5t42.5 -51.5t199 -123q21 -13 21 -77t-36 -93q-98 84 -196 117q-53 -4 -139 -49
q-129 -68 -242 -68v123h92q126 0 219 82q-63 103 -63 190q0 95 81.5 199.5t167.5 104.5q42 0 116 -108q73 -108 110 -108q41 0 70 31.5t43 80t62 254.5q5 22 29 22q21 0 21 -41q0 -22 -8 -79t-8 -86q0 -112 114 -112q110 0 110 95q0 127 -66 285z" />
    <glyph glyph-name="uniFCC9" unicode="&#xfcc9;" arabic-form="initial" 
d="M1196 369l-45 -119q-58 4 -100 4q-49 0 -105 -8t-101 -21t-180 -91q-113 -65 -185 -99.5t-321 -34.5h-159v123h354q76 0 266 99q212 111 265 124q-158 88 -455 88q-33 0 -61 -2q27 64 59 111q53 7 190 15q67 4 92 19t25 79q0 72 -67 325q-16 32 -33 86q25 42 90 121
q36 -67 86 -129q-18 -36 -55 -94q5 -59 29 -179q22 -106 22 -152q0 -83 -53 -116q306 -139 442 -149zM955 -299l-109 -110l-111 110l111 109z" />
    <glyph glyph-name="uniFCCA" unicode="&#xfcca;" arabic-form="initial" 
d="M1196 369l-45 -119q-58 4 -100 4q-49 0 -105 -8t-101 -21t-180 -91q-113 -65 -185 -99.5t-321 -34.5h-159v123h354q76 0 266 99q212 111 265 124q-158 88 -455 88q-33 0 -61 -2q27 64 59 111q53 7 190 15q67 4 92 19t25 79q0 72 -67 325q-16 32 -33 86q25 42 90 121
q36 -67 86 -129q-18 -36 -55 -94q5 -59 29 -179q22 -106 22 -152q0 -83 -53 -116q306 -139 442 -149z" />
    <glyph glyph-name="uniFCCB" unicode="&#xfccb;" arabic-form="initial" 
d="M1196 369l-45 -119q-58 4 -100 4q-49 0 -105 -8t-101 -21t-180 -91q-113 -65 -185 -99.5t-321 -34.5h-159v123h354q76 0 266 99q212 111 265 124q-158 88 -455 88q-33 0 -61 -2q27 64 59 111q53 7 190 15q67 4 92 19t25 79q0 72 -67 325q-16 32 -33 86q25 42 90 121
q36 -67 86 -129q-18 -36 -55 -94q5 -59 29 -179q22 -106 22 -152q0 -83 -53 -116q306 -139 442 -149zM517 912l-109 -110l-111 110l111 109z" />
    <glyph glyph-name="uniFCCC" unicode="&#xfccc;" arabic-form="initial" 
d="M1119 -105q-50 80 -131 139t-148 59q-120 -93 -219 -93h-621v123h619q66 0 129.5 30t77.5 52q-23 61 -43 194q-92 608 -124 637q43 77 84 129q43 -82 88 -131q-32 -47 -57 -100q27 -205 64.5 -418t52.5 -251t45 -60q8 -13 79 -44q93 -41 136.5 -77.5t43.5 -86.5
q0 -19 -29 -54.5t-47 -47.5z" />
    <glyph glyph-name="uniFCCD" unicode="&#xfccd;" arabic-form="initial" 
d="M798 123h171q104 0 104 62q0 244 -29.5 504t-79.5 354q24 43 84 129q41 -87 88 -131l-58 -101q71 -545 71 -763q0 -85 -46.5 -131t-200.5 -46q-197 0 -281 -23q78 -74 78 -131q0 -98 -61 -184t-131 -86q-77 0 -123.5 83.5t-46.5 193.5q0 29 12 77q-58 -25 -111 -39
q4 52 41 138q-80 -29 -215 -29h-64v123h124q177 0 235 31q112 220 217.5 356.5t161.5 136.5q86 0 86 -119q0 -162 -45 -249.5t-241 -196.5q119 41 260 41zM461 166q129 28 227 130.5t98 152.5q0 75 -43 75q-48 0 -95.5 -43t-186.5 -315zM440 -18q-19 -56 -19 -132
q0 -149 126 -149q100 0 100 78q0 57 -71.5 127.5t-135.5 75.5z" />
    <glyph glyph-name="uniFCCE" unicode="&#xfcce;" arabic-form="initial" 
d="M1140 275l-36 -97q-132 0 -251.5 -24t-377.5 -123q-81 -31 -475 -31v123h352q89 0 266 46q209 56 249 62q-104 50 -273 104t-223 54q28 42 56 108q53 54 174.5 106t211.5 65q-127 47 -140.5 60.5t-13.5 26.5q0 32 40 77t67 45q67 0 202.5 -55t135.5 -108
q0 -28 -21.5 -79.5t-34.5 -51.5q-399 0 -546 -104q44 -7 292 -101q243 -92 346 -103zM896 -213l-109 -110l-111 110l111 109z" />
    <glyph glyph-name="uniFCCF" unicode="&#xfccf;" arabic-form="initial" 
d="M1140 275l-36 -97q-132 0 -251.5 -24t-377.5 -123q-81 -31 -475 -31v123h352q89 0 266 46q209 56 249 62q-104 50 -273 104t-223 54q28 42 56 108q53 54 174.5 106t211.5 65q-127 47 -140.5 60.5t-13.5 26.5q0 32 40 77t67 45q67 0 202.5 -55t135.5 -108
q0 -28 -21.5 -79.5t-34.5 -51.5q-399 0 -546 -104q44 -7 292 -101q243 -92 346 -103z" />
    <glyph glyph-name="uniFCD0" unicode="&#xfcd0;" arabic-form="initial" 
d="M1140 275l-36 -97q-132 0 -251.5 -24t-377.5 -123q-81 -31 -475 -31v123h352q89 0 266 46q209 56 249 62q-104 50 -273 104t-223 54q28 42 56 108q53 54 174.5 106t211.5 65q-127 47 -140.5 60.5t-13.5 26.5q0 32 40 77t67 45q67 0 202.5 -55t135.5 -108
q0 -28 -21.5 -79.5t-34.5 -51.5q-399 0 -546 -104q44 -7 292 -101q243 -92 346 -103zM548 800l-109 -110l-111 110l111 109z" />
    <glyph glyph-name="uniFCD1" unicode="&#xfcd1;" arabic-form="initial" 
d="M784 2q-81 74 -196 117q-55 -4 -168 -59q-78 -37 -131 -48.5t-168 -11.5h-121v123h289q61 0 114.5 14t114.5 70q-34 47 -34 114q0 263 341 364q-149 38 -149 77q0 32 39.5 77.5t66.5 45.5q67 0 202.5 -55.5t135.5 -108.5q0 -27 -22 -79t-33 -52q-272 0 -383 -41.5
t-111 -132.5q0 -47 22.5 -85t56 -62t149.5 -97q21 -13 21 -77t-36 -93z" />
    </font>
</defs>
</svg>
