<?xml version="1.0" standalone="no"?>
<!DOCTYPE svg PUBLIC "-//W3C//DTD SVG 1.1//EN" "http://www.w3.org/Graphics/SVG/1.1/DTD/svg11.dtd" >
<svg xmlns="http://www.w3.org/2000/svg" xmlns:xlink="http://www.w3.org/1999/xlink" version="1.1">
<metadata>
Created by FontForge 20170731 at Mon Nov 13 20:38:23 2017
 By Aleksey,,,
(c) 2017 The Monotype Corporation. All Rights Reserved. 

Hebrew OpenType Layout logic copyright (c) 2003 &#38; 2007, Ralph Hancock &#38; John Hudson. This layout logic for Biblical Hebrew is open source software under the MIT License; see embedded license description for details.
</metadata>
<defs>
<font id="CourierNewPS-BoldMT" horiz-adv-x="1229" >
  <font-face 
    font-family="Courier New"
    font-weight="700"
    font-stretch="normal"
    units-per-em="2048"
    panose-1="2 7 6 9 2 2 5 2 4 4"
    ascent="1638"
    descent="-410"
    x-height="908"
    cap-height="1212"
    bbox="-393 -1455 1437 2501"
    underline-thickness="205"
    underline-position="-783"
    unicode-range="U+0020-FFFC"
  />
<missing-glyph 
d="M103 0v1280h1024v-1280h-1024zM135 32h960v1216h-960v-1216z" />
    <glyph glyph-name="uniFB4F" unicode="&#x5d0;&#x200d;&#x5dc;" 
d="M256 840h-156v382q0 127 102 127q103 0 103 -127v-177h50l364 -458q173 61 173 153v100h-68q-137 0 -137 102q0 103 137 103h274v-339q0 -176 -251 -281l203 -256q42 -52 42 -99q0 -37 -29 -65t-67 -28q-54 0 -107 66z" />
    <glyph glyph-name="uniFDF2" unicode="&#x627;&#x627;&#xfedf;&#xfee0;&#xfbab;" arabic-form="isolated" 
d="M1057 1109l160 228q-6 -149 -6 -353q0 -89 9 -285q4 -99 6 -169.5t2 -115.5q1 -75 -8 -145t-32 -137t-41 -100t-41 -33q-3 0 -8 17q-1 8 -1.5 45.5t-0.5 103.5q0 70 -5 186t-15 281q-10 162 -14.5 280.5t-4.5 196.5zM692 61q-46 -61 -154 -61q-23 0 -46 2t-44 7
t-38.5 13.5t-27.5 21.5q-43 49 -52 174l-2 24l-40 -44q-77 1 -132 9.5t-89.5 23t-50.5 35t-16 46.5q0 117 60 197q15 20 36 39t51 37t70 35t93 35q-8 34 -17 65t-22 51l146 204q7 -75 15 -184.5t15 -252.5l10 -203q2 -31 3.5 -50t3.5 -27q3 -15 27 -26.5t67 -11.5
q52 0 52 44q0 55 -8 129t-20.5 151t-27.5 149t-29 122l127 221q6 -33 12 -70t11.5 -79.5t10.5 -92.5t9 -109q2 -35 5.5 -76.5t7.5 -83t8.5 -79.5t8.5 -65q8 -55 13 -87t8 -42q11 -38 85 -38q29 0 42 12.5t13 35.5q0 42 -6.5 98.5t-17 118.5t-23.5 124.5t-25 115.5l-31 133
l131 216q5 -51 9 -89.5t7 -69t6.5 -55t6.5 -48.5t7 -49t9 -57q10 -67 19 -136t16 -132.5t10.5 -118.5t3.5 -94q0 -219 -158 -219q-94 0 -158 61zM317 402l-4 100q-35 -8 -71 -20.5t-65 -28.5q-32 -17 -49.5 -31.5t-17.5 -26.5q42 -18 153 -18q23 0 54 25zM627 1147
q-33 -104 -111 -104q-55 0 -82 39q-26 40 -26 85q0 20 4 39.5t12 39.5q15 41 39 41q31 0 31 -71q0 -38 30 -38q39 0 54 82t39 82q35 0 35 -48q0 -57 33 -57t39 74q7 91 41 91q52 0 52 -142q0 -57 -36 -108t-91 -51q-47 0 -63 46zM596 1369q0 35 -3.5 65t-8.5 56l-22 97
l72 90l18 -151q2 -15 2 -27.5v-26.5q0 -17 -5.5 -33.5t-14 -30.5t-19 -24t-19.5 -15z" />
    <glyph glyph-name="uniFDFC" unicode="&#x631;&#xfbfe;&#xfe8e;&#x644;" arabic-form="isolated" 
d="M606 871l82 115q36 -107 36 -251q0 -69 -11 -208q-12 -139 -12 -208q0 -71 18 -91t67 -20l35 2q122 5 122 46q0 113 -86 214l65 173q97 -154 97 -319q1 -102 -47 -176.5t-136 -74.5q-139 0 -178 38t-39 173q0 37 6 164q7 126 7 197q0 155 -26 226zM406 820q36 80 74 151
q42 -57 104 -112q-44 -68 -44 -110q0 -57 27 -270q27 -214 27 -253q0 -94 -14.5 -139t-55.5 -78t-123.5 -56t-180.5 -23q-220 0 -220 189q0 80 39.5 163t62.5 83q17 0 17 -36q0 -13 -17 -61t-17 -75q0 -49 44.5 -84.5t75.5 -35.5q139 0 226 26t87 81q0 79 -33 298l-38 243
q-5 73 -41 99zM1035 461l53 165q141 -138 141 -394q0 -212 -96 -351t-211 -139q-76 0 -167.5 25.5t-112.5 42t-21 36.5q0 33 44 33q28 0 75 -10q46 -9 85 -9q108 0 221 109t113 218q0 139 -124 274zM974 -9l-76 -66l-67 59l-76 -61l-72 64l75 65l66 -60l74 60z" />
    <glyph glyph-name="uniFEF5" unicode="&#xfedf;&#xfe82;" arabic-form="isolated" 
d="M1011 1137q-73 -119 -90 -336q-20 -251 -64 -354q75 -127 75 -178q0 -69 -41.5 -169t-93.5 -100h-380l54 221q135 32 237 201q-104 181 -337 337l-22 -94l-240 175l46 276q481 -250 621 -564q0 140 -6.5 246t-36.5 327q52 59 106 185q84 -113 172 -173zM774 329
q-53 -98 -128 -155h136q14 0 28.5 19.5t14.5 32.5q0 27 -31 72q-7 10 -20 31zM194 1337q-30 0 -62 -30t-47 -30q-24 0 -24 33q0 67 51.5 113t118.5 46q48 0 126 -29q77 -28 158 -28q76 0 126 37q49 38 58 38q25 0 25 -29q0 -78 -93 -129.5t-181 -51.5q-49 0 -133 30
q-85 30 -123 30z" />
    <glyph glyph-name="uniFEF6" unicode="&#xfee0;&#xfe82;" arabic-form="final" 
d="M1229 0q-189 0 -266.5 82.5t-95.5 348.5q-39 -280 -157.5 -398t-342.5 -118q-86 0 -204 67q367 166 475.5 243t108.5 134q0 87 -100.5 199t-223.5 174l-25 -82q-195 124 -220.5 168.5t-25.5 85.5q0 82 37 174q179 -64 367 -233.5t241 -322.5q11 67 11 335q0 90 -30 224
l172 308l4 -134q16 -544 43.5 -775t62.5 -243t169 -12v-225zM200 1271q-30 0 -62 -30t-47 -30q-24 0 -24 33q0 67 51.5 113t118.5 46q48 0 126 -29q77 -28 158 -28q76 0 126 37q49 38 58 38q25 0 25 -29q0 -78 -93 -129.5t-181 -51.5q-49 0 -133 30q-85 30 -123 30z" />
    <glyph glyph-name="uniFEF7" unicode="&#xfedf;&#xfe84;" arabic-form="isolated" 
d="M1011 1137q-73 -119 -90 -336q-20 -251 -64 -354q75 -127 75 -178q0 -69 -41.5 -169t-93.5 -100h-380l54 221q135 32 237 201q-104 181 -337 337l-22 -94l-240 175l46 276q481 -250 621 -564q0 140 -6.5 246t-36.5 327q52 59 106 185q84 -113 172 -173zM774 329
q-53 -98 -128 -155h136q14 0 28.5 19.5t14.5 32.5q0 27 -31 72q-7 10 -20 31zM135 1203l13 72q51 34 74 64q-95 30 -95 101q0 66 44.5 128t105.5 62q101 0 101 -89q0 -24 -20 -65q-81 59 -127 59q-32 0 -32 -29q0 -36 41.5 -63t86.5 -27q50 0 116 32v-114z" />
    <glyph glyph-name="uniFEF8" unicode="&#xfee0;&#xfe84;" arabic-form="final" 
d="M1229 0q-189 0 -266.5 82.5t-95.5 348.5q-39 -280 -157.5 -398t-342.5 -118q-86 0 -204 67q367 166 475.5 243t108.5 134q0 87 -100.5 199t-223.5 174l-25 -82q-195 124 -220.5 168.5t-25.5 85.5q0 82 37 174q179 -64 367 -233.5t241 -322.5q11 67 11 335q0 90 -30 224
l172 308l4 -134q16 -544 43.5 -775t62.5 -243t169 -12v-225zM135 1225l13 72q51 34 74 64q-95 30 -95 101q0 66 44.5 128t105.5 62q101 0 101 -89q0 -24 -20 -65q-81 59 -127 59q-32 0 -32 -29q0 -36 41.5 -63t86.5 -27q50 0 116 32v-114z" />
    <glyph glyph-name="uniFEF9" unicode="&#xfedf;&#xfe88;" arabic-form="isolated" 
d="M1011 1137q-73 -119 -90 -336q-20 -251 -64 -354q75 -127 75 -178q0 -69 -41.5 -169t-93.5 -100h-380l54 221q135 32 237 201q-104 181 -337 337l-22 -94l-240 175l46 276q481 -250 621 -564q0 140 -6.5 246t-36.5 327q52 59 106 185q84 -113 172 -173zM774 329
q-53 -98 -128 -155h136q14 0 28.5 19.5t14.5 32.5q0 27 -31 72q-7 10 -20 31zM417 -605l13 72q51 34 74 64q-95 30 -95 101q0 65 44.5 127.5t105.5 62.5q101 0 101 -89q0 -24 -20 -65q-81 59 -127 59q-32 0 -32 -29q0 -37 42 -63.5t86 -26.5q50 0 116 32v-114z" />
    <glyph glyph-name="uniFEFA" unicode="&#xfee0;&#xfe88;" arabic-form="final" 
d="M1229 0q-189 0 -266.5 82.5t-95.5 348.5q-39 -280 -157.5 -398t-342.5 -118q-86 0 -204 67q367 166 475.5 243t108.5 134q0 87 -100.5 199t-223.5 174l-25 -82q-195 124 -220.5 168.5t-25.5 85.5q0 82 37 174q179 -64 367 -233.5t241 -322.5q11 67 11 335q0 90 -30 224
l172 308l4 -134q16 -544 43.5 -775t62.5 -243t169 -12v-225zM226 -615l13 72q51 34 74 64q-95 30 -95 101q0 65 44.5 127.5t105.5 62.5q101 0 101 -89q0 -24 -20 -65q-81 59 -127 59q-32 0 -32 -29q0 -37 42 -63.5t86 -26.5q50 0 116 32v-114z" />
    <glyph glyph-name="uniFEFB" unicode="&#xfedf;&#xfe8e;" arabic-form="isolated" 
d="M1011 1137q-73 -119 -90 -336q-20 -251 -64 -354q75 -127 75 -178q0 -69 -41.5 -169t-93.5 -100h-380l54 221q135 32 237 201q-104 181 -337 337l-22 -94l-240 175l46 276q481 -250 621 -564q0 140 -6.5 246t-36.5 327q52 59 106 185q84 -113 172 -173zM774 329
q-53 -98 -128 -155h136q14 0 28.5 19.5t14.5 32.5q0 27 -31 72q-7 10 -20 31z" />
    <glyph glyph-name="uniFEFC" unicode="&#xfee0;&#xfe8e;" arabic-form="final" 
d="M1229 0q-189 0 -266.5 82.5t-95.5 348.5q-39 -280 -157.5 -398t-342.5 -118q-86 0 -204 67q367 166 475.5 243t108.5 134q0 87 -100.5 199t-223.5 174l-25 -82q-195 124 -220.5 168.5t-25.5 85.5q0 82 37 174q179 -64 367 -233.5t241 -322.5q11 67 11 335q0 90 -30 224
l172 308l4 -134q16 -544 43.5 -775t62.5 -243t169 -12v-225z" />
    <glyph glyph-name="uniFEDF_uniFB51.rlig" unicode="&#xfedf;&#xfb51;" 
d="M1011 1137q-73 -119 -90 -336q-20 -251 -64 -354q75 -127 75 -178q0 -69 -41.5 -169t-93.5 -100h-380l54 221q135 32 237 201q-104 181 -337 337l-22 -94l-240 175l46 276q481 -250 621 -564q0 140 -6.5 246t-36.5 327q52 59 106 185q84 -113 172 -173zM774 329
q-53 -98 -128 -155h136q14 0 28.5 19.5t14.5 32.5q0 27 -31 72q-7 10 -20 31zM218 1414q123 193 211 193q33 0 56.5 -36.5t23.5 -85.5q0 -116 -61.5 -150.5t-285.5 -34.5q-25 0 -48 -56q-11 -25 -23 -25q-27 0 -27 60q0 133 154 135zM269 1414q139 0 164.5 4t25.5 30
q0 27 -16 46t-36 19q-57 0 -138 -99z" />
    <glyph glyph-name="uniFEE0_uniFB51.rlig" unicode="&#xfee0;&#xfb51;" 
d="M1229 0q-189 0 -266.5 82.5t-95.5 348.5q-39 -280 -157.5 -398t-342.5 -118q-86 0 -204 67q367 166 475.5 243t108.5 134q0 87 -100.5 199t-223.5 174l-25 -82q-195 124 -220.5 168.5t-25.5 85.5q0 82 37 174q179 -64 367 -233.5t241 -322.5q11 67 11 335q0 90 -30 224
l172 308l4 -134q16 -544 43.5 -775t62.5 -243t169 -12v-225zM239 1414q123 193 211 193q33 0 56.5 -36.5t23.5 -85.5q0 -116 -61.5 -150.5t-285.5 -34.5q-25 0 -48 -56q-11 -25 -23 -25q-27 0 -27 60q0 133 154 135zM290 1414q139 0 164.5 4t25.5 30q0 27 -16 46t-36 19
q-57 0 -138 -99z" />
    <glyph glyph-name="uniFEDF_uniFEE0_uniFBAB.liga" unicode="&#xfedf;&#xfee0;&#xfbab;" 
d="M844 60q-57 -60 -188 -60q-113 0 -165 49q-53 50 -63 172l-2 24l-49 -43q-94 1 -157 8t-101.5 20.5t-54.5 33t-16 45.5q0 118 73 197q18 20 40.5 40t54.5 39t77.5 37t109.5 36q-8 54 -36 112l147 194q8 -75 15.5 -182t15.5 -247l12 -203q2 -31 4.5 -50t4.5 -27
q4 -15 35.5 -26.5t88.5 -11.5q70 0 70 44q0 55 -6 109t-19 115t-33.5 132.5t-49.5 161.5l143 264q20 -111 34.5 -223.5t27.5 -242.5q3 -35 6 -60t6 -47t6.5 -43.5t8.5 -48.5q10 -55 16 -87t9 -42q14 -37 104 -37q85 0 85 47q0 39 -6 80t-17.5 91.5t-28 114t-37.5 146.5
l-35 141l140 246q18 -155 37.5 -278.5t37.5 -219.5q13 -67 20.5 -117t12 -91.5t6 -77.5t1.5 -75q0 -219 -193 -219q-114 0 -192 60zM423 402l-4 97q-40 -8 -64.5 -17.5t-50.5 -22.5q-38 -19 -55 -35.5t-17 -28.5q8 -4 17 -7.5t23.5 -5.5t35.5 -3.5t53 -1.5q27 0 62 25z
M769 1152q-33 -104 -111 -104q-55 0 -82 39q-26 40 -26 85q0 20 4 39.5t12 39.5q15 41 39 41q31 0 31 -71q0 -38 30 -38q39 0 54 82t39 82q35 0 35 -48q0 -57 33 -57t39 74q7 91 41 91q52 0 52 -142q0 -57 -36 -108t-91 -51q-47 0 -63 46zM738 1374q0 35 -3.5 65t-8.5 56
l-22 97l72 90l18 -151q2 -15 2 -27.5v-26.5q0 -17 -5.5 -33.5t-14 -30.5t-19 -24t-19.5 -15z" />
    <glyph glyph-name="uniFEDF_uniFEE0_uni06C1.liga" unicode="&#xfedf;&#xfee0;&#x6c1;" 
d="M844 60q-57 -60 -188 -60q-113 0 -165 49q-53 50 -63 172l-2 24l-49 -43q-94 1 -157 8t-101.5 20.5t-54.5 33t-16 45.5q0 118 73 197q18 20 40.5 40t54.5 39t77.5 37t109.5 36q-8 54 -36 112l147 194q8 -75 15.5 -182t15.5 -247l12 -203q2 -31 4.5 -50t4.5 -27
q4 -15 35.5 -26.5t88.5 -11.5q70 0 70 44q0 55 -6 109t-19 115t-33.5 132.5t-49.5 161.5l143 264q20 -111 34.5 -223.5t27.5 -242.5q3 -35 6 -60t6 -47t6.5 -43.5t8.5 -48.5q10 -55 16 -87t9 -42q14 -37 104 -37q85 0 85 47q0 39 -6 80t-17.5 91.5t-28 114t-37.5 146.5
l-35 141l140 246q18 -155 37.5 -278.5t37.5 -219.5q13 -67 20.5 -117t12 -91.5t6 -77.5t1.5 -75q0 -219 -193 -219q-114 0 -192 60zM423 402l-4 97q-40 -8 -64.5 -17.5t-50.5 -22.5q-38 -19 -55 -35.5t-17 -28.5q8 -4 17 -7.5t23.5 -5.5t35.5 -3.5t53 -1.5q27 0 62 25z" />
    <glyph glyph-name="uni0620.init" unicode="&#x620;" 
d="M0 0v225h860q31 0 78.5 14.5t47.5 33.5q0 158 -113 282l117 289q103 -154 139.5 -252t36.5 -215q0 -108 -78 -242.5t-185 -134.5h-903zM789 -291q0 79 41.5 135.5t111.5 56.5q62 0 99.5 -47t37.5 -115t-54 -119t-122 -51q-54 0 -84 42.5t-30 97.5zM853 -261q0 -58 79 -58
q68 0 68 35q0 33 -35.5 64.5t-69.5 31.5q-42 0 -42 -73z" />
    <glyph glyph-name="uni0620.medi" unicode="&#x620;" 
d="M1229 0h-81q-186 0 -256 38.5t-126 152.5q-112 -191 -223 -191h-543v225h532q120 0 120 104q0 98 -66 255l153 269q84 -265 103 -452q6 -62 19 -87.5t36 -43.5t55 -29t56.5 -13.5t220.5 -2.5v-225zM469 -291q0 79 41.5 135.5t111.5 56.5q62 0 99.5 -47t37.5 -115
t-54 -119t-122 -51q-54 0 -84 42.5t-30 97.5zM533 -261q0 -58 79 -58q68 0 68 35q0 33 -35.5 64.5t-69.5 31.5q-42 0 -42 -73z" />
    <glyph glyph-name="uni0620.fina" unicode="&#x620;" 
d="M1229 0q-67 0 -134 6q-16 1 -93 13q-67 10 -88 10q-131 0 -131 -27q0 -20 111 -40q141 -26 141 -84q0 -33 -37 -79t-76 -66q-150 -80 -356 -80q-216 0 -373 105q-96 64 -96 162q0 47 50 159q56 125 104 125q40 0 40 -49q0 -27 -32 -86t-32 -111q0 -46 67 -77
q75 -34 239 -39q22 0 117 1q58 2 106.5 8t103.5 14q45 8 45 22q0 9 -20 13q-59 15 -76 20q-147 45 -147 92q0 41 9 58q11 22 58 64q104 91 262 91h238v-225zM495 -520q0 63 41.5 108.5t111.5 45.5q62 0 99.5 -38t37.5 -92t-54 -95t-122 -41q-54 0 -84 34t-30 78zM559 -496
q0 -46 79 -46q68 0 68 28q0 26 -35.5 51t-69.5 25q-42 0 -42 -58z" />
    <glyph glyph-name="uni0622" unicode="&#x622;" arabic-form="isolated" 
d="M480 1070l201 228q-7 -148 -7 -353q0 -89 10 -285q9 -196 9 -285q1 -149 -51.5 -282t-105.5 -133q-5 0 -8.5 17t-3.5 149q0 140 -22 467q-22 323 -22 477zM416 1485q-30 0 -62 -30t-47 -30q-24 0 -24 33q0 67 51.5 113t118.5 46q48 0 126 -29q77 -28 158 -28q76 0 126 37
q49 38 58 38q25 0 25 -29q0 -78 -93 -129.5t-181 -51.5q-49 0 -133 30q-85 30 -123 30z" />
    <glyph glyph-name="uni0623" unicode="&#x623;" arabic-form="isolated" 
d="M480 1018l201 228q-7 -148 -7 -353q0 -79 10 -286q5 -86 9 -232q1 -147 -51 -281t-106 -134q-12 0 -12 166q0 89 -22 414.5t-22 477.5zM399 1274l13 72q51 34 74 64q-95 30 -95 101q0 69 45.5 129.5t104.5 60.5q101 0 101 -89q0 -24 -20 -65q-81 59 -127 59
q-32 0 -32 -29q0 -35 41 -62.5t87 -27.5q50 0 116 32v-114z" />
    <glyph glyph-name="uni0624" unicode="&#x624;" arabic-form="isolated" 
d="M877 11q-29 -5 -65 -5q-154 0 -204 44.5t-50 134.5q0 129 76 309.5t179 180.5q105 0 163 -149t58 -381q0 -202 -121 -373.5t-307 -171.5q-64 0 -235.5 58.5t-171.5 102.5q0 20 14 25t45 5q23 0 69 -10q45 -11 108 -11q116 0 271.5 74.5t170.5 166.5zM872 215
q0 79 -19.5 164t-52.5 85q-28 0 -55 -69t-27 -116t16 -58.5t81 -11.5q36 0 57 6zM586 818l13 72q51 34 74 64q-95 30 -95 101q0 66 44.5 128t105.5 62q101 0 101 -89q0 -24 -20 -65q-81 59 -127 59q-32 0 -32 -29q0 -36 41.5 -63t86.5 -27q50 0 116 32v-114z" />
    <glyph glyph-name="uni0625" unicode="&#x625;" arabic-form="isolated" 
d="M480 1070l201 228q-7 -148 -7 -353q0 -89 10 -285q9 -196 9 -285q1 -149 -51.5 -282t-105.5 -133q-5 0 -8.5 17t-3.5 149q0 140 -22 467q-22 323 -22 477zM421 -615l13 72q51 34 74 64q-95 30 -95 101q0 65 44.5 127.5t105.5 62.5q101 0 101 -89q0 -24 -20 -65
q-81 59 -127 59q-32 0 -32 -29q0 -37 42 -63.5t86 -26.5q50 0 116 32v-114z" />
    <glyph glyph-name="uni0626" unicode="&#x626;" arabic-form="isolated" 
d="M987 504q-46 51 -98 51q-45 0 -138 -51.5t-93 -73.5q0 -15 121 -31q164 -22 216.5 -73.5t52.5 -133.5q0 -66 -65 -198t-211.5 -184.5t-281.5 -52.5q-435 0 -435 334q0 61 66.5 230.5t111.5 169.5q25 0 34.5 -7.5t9.5 -38.5q0 -32 -34 -124q-33 -92 -33 -139
q0 -97 68.5 -143t236.5 -46q157 0 279.5 31.5t122.5 89.5q0 23 -22 34t-118 24q-119 17 -177 49.5t-58 102.5q0 153 122 299.5t272 146.5q47 0 85 -29.5t38 -79.5q0 -109 -72 -157zM398 768l13 72q51 34 74 64q-95 30 -95 101q0 66 44.5 128t105.5 62q101 0 101 -89
q0 -24 -20 -65q-81 59 -127 59q-32 0 -32 -29q0 -36 41.5 -63t86.5 -27q50 0 116 32v-114z" />
    <glyph glyph-name="uni0627" unicode="&#x627;" arabic-form="isolated" 
d="M480 1070l201 228q-7 -148 -7 -353q0 -89 10 -285q9 -196 9 -285q1 -149 -51.5 -282t-105.5 -133q-5 0 -8.5 17t-3.5 149q0 140 -22 467q-22 323 -22 477z" />
    <glyph glyph-name="uni0628" unicode="&#x628;" arabic-form="isolated" 
d="M843 554l113 295q107 -176 142.5 -272t35.5 -183q0 -90 -40 -188.5t-90.5 -145t-96 -53.5t-244.5 -7h-218q-435 0 -435 256q0 77 65.5 218t118.5 141q37 0 37 -40q0 -20 -33 -95q-32 -75 -32 -107q0 -148 312 -148h311q201 0 201 51q0 129 -147 278zM818 -378l-153 -154
l-154 154l154 153z" />
    <glyph glyph-name="uni0629" unicode="&#x629;" arabic-form="isolated" 
d="M561 574q-29 6 -38 6q-14 0 -29 -4q41 217 158 217q130 0 224.5 -118.5t94.5 -253.5q0 -179 -75.5 -300t-216.5 -121q-104 0 -161 69t-57 181q0 125 100 324zM666 543q-24 -19 -52 -75.5t-28 -80.5q0 -86 35.5 -137.5t96.5 -51.5q43 0 82.5 28t39.5 80q0 88 -35 143
t-139 94zM969 1077l-155 -157l-141 136l-153 -148l-154 154l156 156l139 -141l154 154z" />
    <glyph glyph-name="uni062A" unicode="&#x62a;" arabic-form="isolated" 
d="M843 554l113 295q107 -176 142.5 -272t35.5 -183q0 -90 -40 -188.5t-90.5 -145t-96 -53.5t-244.5 -7h-218q-435 0 -435 256q0 77 65.5 218t118.5 141q37 0 37 -40q0 -20 -33 -95q-32 -75 -32 -107q0 -148 312 -148h311q201 0 201 51q0 129 -147 278zM891 930l-155 -157
l-141 136l-153 -148l-154 154l156 156l139 -141l154 154z" />
    <glyph glyph-name="uni062B" unicode="&#x62b;" arabic-form="isolated" 
d="M843 554l113 295q107 -176 142.5 -272t35.5 -183q0 -90 -40 -188.5t-90.5 -145t-96 -53.5t-244.5 -7h-218q-435 0 -435 256q0 77 65.5 218t118.5 141q37 0 37 -40q0 -20 -33 -95q-32 -75 -32 -107q0 -148 312 -148h311q201 0 201 51q0 129 -147 278zM713 1326l-156 -154
l-153 154l153 153zM853 1049l-154 -157l-141 141l-154 -154l-153 154l156 156l138 -140l154 153z" />
    <glyph glyph-name="uni062C" unicode="&#x62c;" arabic-form="isolated" 
d="M1153 -408q-85 -92 -204 -147q-129 -59 -243 -59q-209 0 -349 140q-135 134 -135 319q0 272 454 485q-177 80 -213 80q-67 0 -133.5 -51.5t-63.5 -51.5q-38 0 -38 78q0 102 113 180q108 74 234 74q19 0 195.5 -65t272.5 -65l65 3l-78 -238q-192 0 -302 -42
q-120 -45 -213 -127q-127 -111 -127 -236q0 -130 102 -212q96 -78 238 -78q233 0 448 152q11 8 36 8q6 -17 11.5 -41t-70.5 -106zM923 -127l-153 -154l-154 154l154 153z" />
    <glyph glyph-name="uni062D" unicode="&#x62d;" arabic-form="isolated" 
d="M1153 -408q-85 -92 -204 -147q-129 -59 -243 -59q-209 0 -349 140q-135 134 -135 319q0 272 454 485q-177 80 -213 80q-67 0 -133.5 -51.5t-63.5 -51.5q-38 0 -38 78q0 102 113 180q108 74 234 74q19 0 195.5 -65t272.5 -65l65 3l-78 -238q-192 0 -302 -42
q-120 -45 -213 -127q-127 -111 -127 -236q0 -130 102 -212q96 -78 238 -78q233 0 448 152q11 8 36 8q6 -17 11.5 -41t-70.5 -106z" />
    <glyph glyph-name="uni062E" unicode="&#x62e;" arabic-form="isolated" 
d="M1153 -408q-85 -92 -204 -147q-129 -59 -243 -59q-209 0 -349 140q-135 134 -135 319q0 272 454 485q-177 80 -213 80q-67 0 -133.5 -51.5t-63.5 -51.5q-38 0 -38 78q0 102 113 180q108 74 234 74q19 0 195.5 -65t272.5 -65l65 3l-78 -238q-192 0 -302 -42
q-120 -45 -213 -127q-127 -111 -127 -236q0 -130 102 -212q96 -78 238 -78q233 0 448 152q11 8 36 8q6 -17 11.5 -41t-70.5 -106zM880 1091l-153 -154l-154 154l154 153z" />
    <glyph glyph-name="uni062F" unicode="&#x62f;" arabic-form="isolated" 
d="M611 678l28 245q179 -29 301.5 -220t122.5 -360q0 -186 -86.5 -270t-283.5 -84q-320 0 -320 201q0 40 30 106.5t57 66.5q29 0 34 -73q2 -38 42 -55t159 -17q245 0 245 56q0 121 -101.5 253.5t-227.5 150.5z" />
    <glyph glyph-name="uni0630" unicode="&#x630;" arabic-form="isolated" 
d="M611 678l28 245q179 -29 301.5 -220t122.5 -360q0 -186 -86.5 -270t-283.5 -84q-320 0 -320 201q0 40 30 106.5t57 66.5q29 0 34 -73q2 -38 42 -55t159 -17q245 0 245 56q0 121 -101.5 253.5t-227.5 150.5zM808 1241l-153 -154l-154 154l154 153z" />
    <glyph glyph-name="uni0631" unicode="&#x631;" arabic-form="isolated" 
d="M708 534l102 273q239 -230 239 -576q0 -220 -132.5 -435t-329.5 -215q-84 0 -267.5 67.5t-183.5 113.5q0 32 50 32q32 0 90 -14q57 -15 136 -15q168 0 337.5 142t169.5 244q0 192 -211 383z" />
    <glyph glyph-name="uni0632" unicode="&#x632;" arabic-form="isolated" 
d="M708 534l102 273q239 -230 239 -576q0 -220 -132.5 -435t-329.5 -215q-84 0 -267.5 67.5t-183.5 113.5q0 32 50 32q32 0 90 -14q57 -15 136 -15q168 0 337.5 142t169.5 244q0 192 -211 383zM889 1146l-153 -154l-154 154l154 153z" />
    <glyph glyph-name="uni0633" unicode="&#x633;" arabic-form="isolated" 
d="M784 58q-32 -60 -108 -60q-52 0 -82 34q0 -176 -82 -290t-233 -114q-279 0 -279 456q0 104 71.5 315t137.5 211q30 0 30 -54q0 -43 -62 -184q-54 -123 -54 -297q0 -103 45 -164t123 -61q114 0 152 52t38 144q0 126 -66 279q37 184 50 313q102 -122 130 -407
q24 -23 60 -23q48 0 77 154q25 130 49.5 175t67.5 45t43 -95q0 -28 -10 -89t-10 -90q0 -93 80 -93q35 0 59 28.5t24 68.5q0 104 -90 301l145 202q108 -182 108 -434q0 -379 -291 -379q-86 0 -123 56z" />
    <glyph glyph-name="uni0634" unicode="&#x634;" arabic-form="isolated" 
d="M784 58q-32 -60 -108 -60q-52 0 -82 34q0 -176 -82 -290t-233 -114q-279 0 -279 456q0 104 71.5 315t137.5 211q30 0 30 -54q0 -43 -62 -184q-54 -123 -54 -297q0 -103 45 -164t123 -61q114 0 152 52t38 144q0 126 -66 279q37 184 50 313q102 -122 130 -407
q24 -23 60 -23q48 0 77 154q25 130 49.5 175t67.5 45t43 -95q0 -28 -10 -89t-10 -90q0 -93 80 -93q35 0 59 28.5t24 68.5q0 104 -90 301l145 202q108 -182 108 -434q0 -379 -291 -379q-86 0 -123 56zM845 1255l-156 -154l-153 154l153 153zM985 978l-154 -157l-141 141
l-154 -154l-153 154l156 156l138 -140l154 153z" />
    <glyph glyph-name="uni0635" unicode="&#x635;" arabic-form="isolated" 
d="M573 35q-45 -421 -306 -421q-147 0 -205.5 113.5t-58.5 379.5q0 142 73 322t127 180q39 0 39 -34q0 -33 -64 -200q-57 -150 -57 -303q0 -97 47 -160t118 -63q185 0 185 196q0 123 -59 274l51 331q110 -309 113 -442q23 0 38 2q121 304 198.5 410.5t146.5 106.5
q211 0 211 -407q0 -106 -30.5 -176t-99 -107.5t-273.5 -37.5q-141 0 -194 36zM731 226q63 -9 204 -9q61 0 81 21t20 67q0 87 -37.5 140t-90.5 53q-85 0 -177 -272z" />
    <glyph glyph-name="uni0636" unicode="&#x636;" arabic-form="isolated" 
d="M573 35q-45 -421 -306 -421q-147 0 -205.5 113.5t-58.5 379.5q0 142 73 322t127 180q39 0 39 -34q0 -33 -64 -200q-57 -150 -57 -303q0 -97 47 -160t118 -63q185 0 185 196q0 123 -59 274l51 331q110 -309 113 -442q23 0 38 2q121 304 198.5 410.5t146.5 106.5
q211 0 211 -407q0 -106 -30.5 -176t-99 -107.5t-273.5 -37.5q-141 0 -194 36zM731 226q63 -9 204 -9q61 0 81 21t20 67q0 87 -37.5 140t-90.5 53q-85 0 -177 -272zM939 1023l-153 -154l-154 154l154 153z" />
    <glyph glyph-name="uni0637" unicode="&#x637;" arabic-form="isolated" 
d="M0 225h221q95 90 95 239q0 506 -68 618l126 205l173 -177q-78 -92 -78 -339l3 -138q0 -67 -31 -248q274 336 482 336q259 0 259 -350q0 -371 -510 -371l-456 1q-79 0 -137.5 68t-78.5 156zM456 225h393q174 0 174 103q0 77 -46.5 127t-107.5 50q-37 0 -87.5 -24.5
t-87.5 -53t-238 -202.5z" />
    <glyph glyph-name="uni0638" unicode="&#x638;" arabic-form="isolated" 
d="M0 225h221q95 90 95 239q0 506 -68 618l126 205l173 -177q-78 -92 -78 -339l3 -138q0 -67 -31 -248q274 336 482 336q259 0 259 -350q0 -371 -510 -371l-456 1q-79 0 -137.5 68t-78.5 156zM456 225h393q174 0 174 103q0 77 -46.5 127t-107.5 50q-37 0 -87.5 -24.5
t-87.5 -53t-238 -202.5zM979 1026l-153 -154l-154 154l154 153z" />
    <glyph glyph-name="uni0639" unicode="&#x639;" arabic-form="isolated" 
d="M1218 -273q0 -56 -79 -140q-85 -91 -204 -145q-127 -56 -239 -56q-244 0 -392 126q-129 110 -129 269q0 82 99 217q82 114 143 158q-107 66 -127 82q-81 66 -81 132q0 136 100 260q105 129 230 129q127 0 215 -61q79 -53 79 -113q0 -30 -27 -30q-18 0 -84 19
q-58 17 -111 17q-65 0 -154 -47q-119 -62 -119 -127q0 -31 95 -57q86 -24 163 -24q95 0 304 91l-60 -251q-167 -30 -285 -91q-175 -91 -175 -223q0 -112 113 -178q96 -55 220 -55q167 0 453 102q22 8 35 8q17 0 17 -12z" />
    <glyph glyph-name="uni063A" unicode="&#x63a;" arabic-form="isolated" 
d="M1218 -273q0 -56 -79 -140q-85 -91 -204 -145q-127 -56 -239 -56q-244 0 -392 126q-129 110 -129 269q0 82 99 217q82 114 143 158q-107 66 -127 82q-81 66 -81 132q0 136 100 260q105 129 230 129q127 0 215 -61q79 -53 79 -113q0 -30 -27 -30q-18 0 -84 19
q-58 17 -111 17q-65 0 -154 -47q-119 -62 -119 -127q0 -31 95 -57q86 -24 163 -24q95 0 304 91l-60 -251q-167 -30 -285 -91q-175 -91 -175 -223q0 -112 113 -178q96 -55 220 -55q167 0 453 102q22 8 35 8q17 0 17 -12zM714 1158l-153 -154l-154 154l154 153z" />
    <glyph glyph-name="uni063B.init" unicode="&#x63b;" 
d="M765 225q131 0 131 37q0 67 -115 168l-181 150q-78 64 -112 112t-34 84q0 123 165.5 245.5t609.5 285.5l-100 -245q-183 -71 -327.5 -141.5t-144.5 -93.5q0 -28 114 -120q133 -107 202 -204.5t69 -217.5q0 -173 -61 -229t-221 -56h-760v225h765zM761 1221l-155 -157
l-141 136l-153 -148l-154 154l156 156l139 -141l154 154z" />
    <glyph glyph-name="uni063B.medi" unicode="&#x63b;" 
d="M574 226q130 0 130 32q0 91 -220.5 256.5t-221.5 257.5q0 123 165.5 246t609.5 285l-100 -245q-472 -182 -472 -235q0 -17 10.5 -33.5t94.5 -91.5t218 -208q48 -67 153 -179q78 -60 125 -73t163 -13v-225q-227 0 -316 56.5t-128 143.5q-17 -89 -80.5 -144.5t-161.5 -55.5
h-543v225zM605 1228l-155 -157l-141 136l-153 -148l-154 154l156 156l139 -141l154 154z" />
    <glyph glyph-name="uni063B.fina" unicode="&#x63b;" 
d="M1210 1303l-100 -245q-157 -61 -291 -133.5t-134 -102.5q0 -27 26 -54q149 -135 261 -271q43 -68 109.5 -154.5t92 -102t55.5 -15.5v-225q-178 0 -272 200q-21 -123 -135 -166t-345 -43q-154 0 -271 12.5t-161.5 77t-44.5 178.5q0 82 62 217t130 135q28 0 28 -35
q0 -28 -37 -104q-36 -77 -36 -114q0 -74 55 -110.5t199 -36.5q233 0 354.5 10.5t121.5 39.5q0 81 -197 255q-198 173 -198 255q0 133 170.5 261.5t557.5 270.5zM888 1304l-155 -157l-141 136l-153 -148l-154 154l156 156l139 -141l154 154z" />
    <glyph glyph-name="uni063C.init" unicode="&#x63c;" 
d="M765 225q131 0 131 37q0 67 -115 168l-181 150q-78 64 -112 112t-34 84q0 123 165.5 245.5t609.5 285.5l-100 -245q-183 -71 -327.5 -141.5t-144.5 -93.5q0 -28 114 -120q133 -107 202 -204.5t69 -217.5q0 -173 -61 -229t-221 -56h-760v225h765zM778 -225l-119 -136
l-121 115l-106 -108l-119 122l115 133l118 -126l108 119zM663 -449l-116 -132l-118 132l118 116z" />
    <glyph glyph-name="uni063C.medi" unicode="&#x63c;" 
d="M574 226q130 0 130 32q0 91 -220.5 256.5t-221.5 257.5q0 123 165.5 246t609.5 285l-100 -245q-472 -182 -472 -235q0 -17 10.5 -33.5t94.5 -91.5t218 -208q48 -67 153 -179q78 -60 125 -73t163 -13v-225q-227 0 -316 56.5t-128 143.5q-17 -89 -80.5 -144.5t-161.5 -55.5
h-543v225zM645 -224l-119 -136l-121 115l-106 -108l-119 122l115 133l118 -126l108 119zM530 -448l-116 -132l-118 132l118 116z" />
    <glyph glyph-name="uni063C.fina" unicode="&#x63c;" 
d="M1210 1303l-100 -245q-157 -61 -291 -133.5t-134 -102.5q0 -27 26 -54q149 -135 261 -271q43 -68 109.5 -154.5t92 -102t55.5 -15.5v-225q-178 0 -272 200q-21 -123 -135 -166t-345 -43q-154 0 -271 12.5t-161.5 77t-44.5 178.5q0 82 62 217t130 135q28 0 28 -35
q0 -28 -37 -104q-36 -77 -36 -114q0 -74 55 -110.5t199 -36.5q233 0 354.5 10.5t121.5 39.5q0 81 -197 255q-198 173 -198 255q0 133 170.5 261.5t557.5 270.5zM782 -225l-119 -136l-121 115l-106 -108l-119 122l115 133l118 -126l108 119zM667 -449l-116 -132l-118 132
l118 116z" />
    <glyph glyph-name="uni063D.init" unicode="&#x63d;" 
d="M0 0v225h860q31 0 78.5 14.5t47.5 33.5q0 158 -113 282l117 289q103 -154 139.5 -252t36.5 -215q0 -108 -78 -242.5t-185 -134.5h-903zM1180 -199l-155 -157l-141 136l-153 -148l-154 154l156 156l139 -141l154 154zM1117 1059q4 -19 -38 -29q-43 -10 -51 3
q-13 14 -49 70q-11 17 -38 59q-13 -20 -38 -59q-21 -32 -48 -71q-10 -12 -52 -2t-38 29q1 5 68 98l108 149l107 -149q34 -46 69 -98z" />
    <glyph glyph-name="uni063D.medi" unicode="&#x63d;" 
d="M1229 0h-81q-186 0 -256 38.5t-126 152.5q-112 -191 -223 -191h-543v225h532q120 0 120 104q0 98 -66 255l153 269q84 -265 103 -452q6 -62 19 -87.5t36 -43.5t55 -29t56.5 -13.5t220.5 -2.5v-225zM1018 -199l-155 -157l-141 136l-153 -148l-154 154l156 156l139 -141
l154 154zM881 1059q4 -19 -38 -29q-43 -10 -51 3q-13 14 -49 70q-11 17 -38 59q-13 -20 -38 -59q-21 -32 -48 -71q-10 -12 -52 -2t-38 29q1 5 68 98l108 149l107 -149q34 -46 69 -98z" />
    <glyph glyph-name="uni063D.fina" unicode="&#x63d;" 
d="M1229 0q-67 0 -134 6t-125 6q-161 0 -186 -10q6 -21 110 -40q166 -31 166 -109q0 -196 -171.5 -310t-397.5 -114q-430 0 -430 400q0 60 70.5 217.5t120.5 157.5q23 0 31.5 -10t8.5 -39q0 -28 -40 -113t-40 -138q0 -227 316 -227q123 0 254 20t131 53q0 23 -116 43
q-151 26 -151 115q0 143 99 230t246 87h238v-225zM732 441q4 -19 -38 -29q-43 -10 -51 3q-13 14 -49 70q-11 17 -38 59q-13 -20 -38 -59q-21 -32 -48 -71q-10 -12 -52 -2t-38 29q1 5 68 98l108 149l107 -149q34 -46 69 -98z" />
    <glyph glyph-name="uni063E.init" unicode="&#x63e;" 
d="M0 0v225h860q31 0 78.5 14.5t47.5 33.5q0 158 -113 282l117 289q103 -154 139.5 -252t36.5 -215q0 -108 -78 -242.5t-185 -134.5h-903zM1180 -199l-155 -157l-141 136l-153 -148l-154 154l156 156l139 -141l154 154zM1229 1131l-155 -157l-141 136l-153 -148l-154 154
l156 156l139 -141l154 154z" />
    <glyph glyph-name="uni063E.medi" unicode="&#x63e;" 
d="M1229 0h-81q-186 0 -256 38.5t-126 152.5q-112 -191 -223 -191h-543v225h532q120 0 120 104q0 98 -66 255l153 269q84 -265 103 -452q6 -62 19 -87.5t36 -43.5t55 -29t56.5 -13.5t220.5 -2.5v-225zM1018 -198l-155 -157l-141 136l-153 -148l-154 154l156 156l139 -141
l154 154zM955 1095l-155 -157l-141 136l-153 -148l-154 154l156 156l139 -141l154 154z" />
    <glyph glyph-name="uni063E.fina" unicode="&#x63e;" 
d="M1229 0q-67 0 -134 6t-125 6q-161 0 -186 -10q6 -21 110 -40q166 -31 166 -109q0 -196 -171.5 -310t-397.5 -114q-430 0 -430 400q0 60 70.5 217.5t120.5 157.5q23 0 31.5 -10t8.5 -39q0 -28 -40 -113t-40 -138q0 -227 316 -227q123 0 254 20t131 53q0 23 -116 43
q-151 26 -151 115q0 143 99 230t246 87h238v-225zM891 504l-155 -157l-141 136l-153 -148l-154 154l156 156l139 -141l154 154z" />
    <glyph glyph-name="uni063F.init" unicode="&#x63f;" 
d="M0 0v225h860q31 0 78.5 14.5t47.5 33.5q0 158 -113 282l117 289q103 -154 139.5 -252t36.5 -215q0 -108 -78 -242.5t-185 -134.5h-903zM1180 -199l-155 -157l-141 136l-153 -148l-154 154l156 156l139 -141l154 154zM1087 1387l-156 -154l-153 154l153 153zM1227 1110
l-154 -157l-141 141l-154 -154l-153 154l156 156l138 -140l154 153z" />
    <glyph glyph-name="uni063F.medi" unicode="&#x63f;" 
d="M1229 0h-81q-186 0 -256 38.5t-126 152.5q-112 -191 -223 -191h-543v225h532q120 0 120 104q0 98 -66 255l153 269q84 -265 103 -452q6 -62 19 -87.5t36 -43.5t55 -29t56.5 -13.5t220.5 -2.5v-225zM1018 -198l-155 -157l-141 136l-153 -148l-154 154l156 156l139 -141
l154 154zM833 1362l-156 -154l-153 154l153 153zM973 1085l-154 -157l-141 141l-154 -154l-153 154l156 156l138 -140l154 153z" />
    <glyph glyph-name="uni063F.fina" unicode="&#x63f;" 
d="M1229 0q-67 0 -134 6t-125 6q-161 0 -186 -10q6 -21 110 -40q166 -31 166 -109q0 -196 -171.5 -310t-397.5 -114q-430 0 -430 400q0 60 70.5 217.5t120.5 157.5q23 0 31.5 -10t8.5 -39q0 -28 -40 -113t-40 -138q0 -227 316 -227q123 0 254 20t131 53q0 23 -116 43
q-151 26 -151 115q0 143 99 230t246 87h238v-225zM746 782l-156 -154l-153 154l153 153zM886 505l-154 -157l-141 141l-154 -154l-153 154l156 156l138 -140l154 153z" />
    <glyph glyph-name="uni0641" unicode="&#x641;" arabic-form="isolated" 
d="M1069 359q-58 -30 -134 -30q-81 0 -148.5 38.5t-67.5 101.5q0 132 76.5 287t178.5 155q104 0 173 -158t69 -304q0 -156 -37 -257t-126 -146.5t-356 -45.5h-191q-189 0 -292 25.5t-156 85.5t-53 155q0 82 57 216t121 134q38 0 38 -32q0 -21 -35 -98t-35 -115
q0 -70 70 -108t318 -38h184q209 0 270.5 19t75.5 115zM1028 546q-6 56 -31.5 107t-52.5 51q-33 0 -58 -59t-25 -107q0 -28 61 -28q56 0 106 36zM1060 1200l-153 -154l-154 154l154 153z" />
    <glyph glyph-name="uni0642" unicode="&#x642;" arabic-form="isolated" 
d="M1192 1072l-154 -157l-140 141l-154 -153l-154 153l156 156l139 -140l154 154zM1039 160q-34 -8 -101 -8q-222 0 -222 133t71 295t172 162q119 0 179.5 -169t60.5 -458q0 -235 -159.5 -367t-420.5 -132q-276 0 -393 101t-117 307q0 81 61.5 228.5t113.5 147.5
q33 0 33 -44q0 -51 -26 -147q-26 -97 -26 -145q0 -210 339 -210q441 0 441 245q0 29 -6 61zM1019 349q-20 187 -84 187q-33 0 -58 -59t-25 -107q0 -33 83 -33q45 0 84 12z" />
    <glyph glyph-name="uni0643" unicode="&#x643;" arabic-form="isolated" 
d="M1146 1137q-49 -83 -49 -184q0 -99 10 -297q11 -198 11 -297q0 -132 -40.5 -217.5t-134 -131.5t-393.5 -46q-337 0 -439.5 70.5t-102.5 201.5q0 55 31 131.5t63 76.5q34 0 34 -35q0 -9 -4 -34q-3 -25 -3 -36q0 -68 86.5 -104.5t392.5 -36.5q376 0 376 103
q0 174 -38.5 440t-94.5 343q30 68 119 216q70 -87 176 -163zM584 888q-9 -78 -39 -106q-12 13 -34 13q-19 0 -41.5 -13t-22.5 -30q0 -12 45 -18q87 -10 109 -34.5t22 -56.5q0 -42 -36 -106t-118 -64q-35 0 -93 11.5t-58 27.5q0 17 110 41q111 24 111 37q0 3 -81 18t-81 70
q0 52 49.5 143t101.5 91q40 0 56 -24z" />
    <glyph glyph-name="uni0644" unicode="&#x644;" arabic-form="isolated" 
d="M1124 1126q-78 -114 -78 -159q0 -122 24 -367q25 -244 25 -366q0 -215 -132.5 -322.5t-461.5 -107.5q-157 0 -260 73t-103 209q0 73 52.5 215t103.5 142q40 0 40 -40q0 -26 -27 -101q-26 -76 -26 -110q0 -64 58 -107.5t140 -43.5q484 0 484 135q0 181 -51.5 514
t-105.5 374q49 105 125 238q102 -114 193 -176z" />
    <glyph glyph-name="uni0645" unicode="&#x645;" arabic-form="isolated" 
d="M1229 190v-190q-222 48 -431 48q-142 0 -195.5 -18.5t-53.5 -65.5q0 -51 30 -163q61 -227 61 -253l-152 -162q0 48 -92 365q-50 173 -50 228q0 141 127 220q-70 148 -70 199q0 143 86.5 222.5t237.5 79.5q113 0 309 -205q193 -201 193 -305zM1052 236q-193 275 -319 275
q-71 0 -120.5 -44t-49.5 -111q0 -64 27 -127q115 26 236 26q146 0 226 -19z" />
    <glyph glyph-name="uni0646" unicode="&#x646;" arabic-form="isolated" 
d="M834 957l-152 -155l-154 154l154 153zM852 397l113 352q71 -133 113 -293t42 -263q0 -282 -146.5 -435t-418.5 -153q-126 0 -223.5 51t-150.5 134.5t-53 195.5q0 131 80 345t173 214q38 0 38 -41q0 -17 -59 -170q-58 -152 -58 -267q0 -83 84 -150.5t180 -67.5
q157 0 280.5 52.5t123.5 150.5q0 154 -118 345z" />
    <glyph glyph-name="uni0647" unicode="&#x647;" arabic-form="isolated" 
d="M561 574q-29 6 -38 6q-14 0 -29 -4q41 217 158 217q130 0 224.5 -118.5t94.5 -253.5q0 -179 -75.5 -300t-216.5 -121q-104 0 -161 69t-57 181q0 125 100 324zM666 543q-24 -19 -52 -75.5t-28 -80.5q0 -86 35.5 -137.5t96.5 -51.5q43 0 82.5 28t39.5 80q0 88 -35 143
t-139 94z" />
    <glyph glyph-name="uni0648" unicode="&#x648;" arabic-form="isolated" 
d="M877 11q-29 -5 -65 -5q-154 0 -204 44.5t-50 134.5q0 129 76 309.5t179 180.5q105 0 163 -149t58 -381q0 -202 -121 -373.5t-307 -171.5q-64 0 -235.5 58.5t-171.5 102.5q0 20 14 25t45 5q23 0 69 -10q45 -11 108 -11q116 0 271.5 74.5t170.5 166.5zM872 215
q0 79 -19.5 164t-52.5 85q-28 0 -55 -69t-27 -116t16 -58.5t81 -11.5q36 0 57 6z" />
    <glyph glyph-name="uni0649" unicode="&#x649;" arabic-form="isolated" 
d="M987 504q-46 51 -98 51q-45 0 -138 -51.5t-93 -73.5q0 -15 121 -31q164 -22 216.5 -73.5t52.5 -133.5q0 -66 -65 -198t-211.5 -184.5t-281.5 -52.5q-435 0 -435 334q0 61 66.5 230.5t111.5 169.5q25 0 34.5 -7.5t9.5 -38.5q0 -32 -34 -124q-33 -92 -33 -139
q0 -97 68.5 -143t236.5 -46q157 0 279.5 31.5t122.5 89.5q0 23 -22 34t-118 24q-119 17 -177 49.5t-58 102.5q0 153 122 299.5t272 146.5q47 0 85 -29.5t38 -79.5q0 -109 -72 -157z" />
    <glyph glyph-name="uni064A" unicode="&#x64a;" arabic-form="isolated" 
d="M987 504q-46 51 -98 51q-45 0 -138 -51.5t-93 -73.5q0 -15 121 -31q164 -22 216.5 -73.5t52.5 -133.5q0 -66 -65 -198t-211.5 -184.5t-281.5 -52.5q-435 0 -435 334q0 61 66.5 230.5t111.5 169.5q25 0 34.5 -7.5t9.5 -38.5q0 -32 -34 -124q-33 -92 -33 -139
q0 -97 68.5 -143t236.5 -46q157 0 279.5 31.5t122.5 89.5q0 23 -22 34t-118 24q-119 17 -177 49.5t-58 102.5q0 153 122 299.5t272 146.5q47 0 85 -29.5t38 -79.5q0 -109 -72 -157zM805 -479l-119 -123l-120 96l-121 -103l-119 119l123 121l105 -116l125 113z" />
    <glyph glyph-name="uni066E.fina" unicode="&#x66e;" 
d="M1229 225v-225q-185 0 -231 176q-16 -49 -65 -97t-97 -63t-137 -15h-264q-435 0 -435 255q0 77 65.5 218t118.5 141q37 0 37 -40q0 -20 -33 -95q-32 -75 -32 -107q0 -148 312 -148h295q142 0 142 87q0 145 -67 282l130 219q89 -295 90 -410t48 -146.5t123 -31.5z" />
    <glyph glyph-name="uni066F.init" unicode="&#x66f;" 
d="M0 0v225h783q102 0 156.5 8t89.5 39t35 84q-83 -34 -131 -34q-77 0 -149.5 36.5t-72.5 98.5q0 131 78 289t181 158q104 0 173 -158.5t69 -304.5q0 -253 -88.5 -347t-343.5 -94h-780zM1020 540q-6 56 -31 107t-52 51q-33 0 -58.5 -59.5t-25.5 -106.5q0 -28 62 -28
q46 0 105 36z" />
    <glyph glyph-name="uni066F.fina" unicode="&#x66f;" 
d="M1229 0h-55q-25 -164 -194.5 -260.5t-366.5 -96.5q-150 0 -256 45.5t-160 130t-54 208.5q0 75 55 218t100 143q37 0 37 -51q0 -42 -24 -123q-24 -82 -24 -121q0 -101 85 -157.5t227 -56.5h34q139 0 232.5 14.5t132 37.5t43 34t4.5 35q-343 0 -343 156q0 136 77 324
t176 188q98 0 154.5 -119t64.5 -324h55v-225zM1030 225q0 82 -23 159t-64 77q-35 0 -59.5 -71.5t-24.5 -126.5q0 -44 96 -44q37 0 75 6z" />
    <glyph glyph-name="uni0671" unicode="&#x671;" arabic-form="isolated" 
d="M516 1482q123 193 211 193q33 0 56.5 -36.5t23.5 -85.5q0 -117 -62.5 -151t-284.5 -34q-24 0 -48 -56q-10 -25 -23 -25q-27 0 -27 60q0 133 154 135zM567 1482q141 0 165.5 4t24.5 30q0 65 -52 65q-57 0 -138 -99zM480 1056l201 228q-7 -153 -7 -354q0 -74 10 -270
t10 -285q0 -146 -52.5 -280.5t-105.5 -134.5q-11 0 -11 166q0 135 -23 467q-22 318 -22 463z" />
    <glyph glyph-name="uni0672.fina" unicode="&#x672;" 
d="M1229 0h-426q-140 0 -200 23.5t-90 113.5t-30 250q0 68 6 181t6 144q0 215 -36 373l157 205q61 -214 61 -454q0 -72 -7 -228t-7 -249q0 -79 11 -106.5t52 -27.5h503v-225zM766 1397l-245 -105q-61 -26 -78 -26q-10 0 -33.5 23.5t-34.5 23.5q-25 0 -79 -47l12 53
q54 89 82 89q18 0 43 -29t36 -29q35 0 76 52q-95 30 -95 101q0 65 42 124q46 66 108 66q101 0 101 -89q0 -24 -20 -65q-81 59 -127 59q-32 0 -32 -29q0 -39 46 -66q41 -24 82 -24q50 0 116 32v-114z" />
    <glyph glyph-name="uni0673.fina" unicode="&#x673;" 
d="M1229 0h-426q-140 0 -200 23.5t-90 113.5t-30 250q0 68 6 181t6 144q0 215 -36 373l157 205q61 -214 61 -454q0 -72 -7 -228t-7 -249q0 -79 11 -106.5t52 -27.5h503v-225zM766 -476l-245 -105q-61 -26 -78 -26q-10 0 -33.5 23.5t-34.5 23.5q-25 0 -79 -47l12 53
q54 89 82 89q18 0 43 -29t36 -29q35 0 76 52q-95 30 -95 101q0 65 42 124q46 66 108 66q101 0 101 -89q0 -24 -20 -65q-81 59 -127 59q-32 0 -32 -29q0 -39 46 -66q41 -24 82 -24q50 0 116 32v-114z" />
    <glyph glyph-name="uni0675.fina" unicode="&#x675;" 
d="M1229 0h-426q-140 0 -200 23.5t-90 113.5t-30 250q0 68 6 181t6 144q0 215 -36 373l157 205q61 -214 61 -454q0 -72 -7 -228t-7 -249q0 -79 11 -106.5t52 -27.5h503v-225zM818 971l13 72q51 34 74 64q-95 30 -95 101q0 66 44.5 128t105.5 62q101 0 101 -89q0 -24 -20 -65
q-81 59 -127 59q-32 0 -32 -29q0 -36 41.5 -63t86.5 -27q50 0 116 32v-114z" />
    <glyph glyph-name="uni0676.fina" unicode="&#x676;" 
d="M1229 225v-225h-210q-43 -177 -152.5 -288.5t-256.5 -111.5q-61 0 -234 58t-173 99q0 34 59 34q18 0 68 -10q50 -11 109 -11q113 0 270.5 75t170.5 162q-57 -6 -65 -6q-146 0 -199.5 46t-53.5 138q0 132 76 318.5t178 186.5q94 0 151.5 -127t68.5 -338h193zM876 231
q0 79 -19.5 164t-52.5 85q-25 0 -53.5 -65.5t-28.5 -118.5q0 -47 16.5 -59t80.5 -12q33 0 57 6zM823 818l13 72q51 34 74 64q-95 30 -95 101q0 66 44.5 128t105.5 62q101 0 101 -89q0 -24 -20 -65q-81 59 -127 59q-32 0 -32 -29q0 -36 41.5 -63t86.5 -27q50 0 116 32v-114z
" />
    <glyph glyph-name="uni0677" unicode="&#x677;" arabic-form="isolated" 
d="M877 11q-29 -5 -65 -5q-154 0 -204 44.5t-50 134.5q0 129 76 309.5t179 180.5q105 0 163 -149t58 -381q0 -202 -121 -373.5t-307 -171.5q-64 0 -235.5 58.5t-171.5 102.5q0 20 14 25t45 5q23 0 69 -10q45 -11 108 -11q116 0 271.5 74.5t170.5 166.5zM872 215
q0 79 -19.5 164t-52.5 85q-28 0 -55 -69t-27 -116t16 -58.5t81 -11.5q36 0 57 6zM823 818l13 72q51 34 74 64q-95 30 -95 101q0 66 44.5 128t105.5 62q101 0 101 -89q0 -24 -20 -65q-81 59 -127 59q-32 0 -32 -29q0 -36 41.5 -63t86.5 -27q50 0 116 32v-114zM561 950
q-128 -144 -204 -144q-18 0 -43 12t-25 27q0 8 16 15q123 49 200 120q-92 67 -92 115q0 49 47 111.5t108 62.5q44 0 71 -32.5t27 -82.5q0 -52 -36 -112q50 -19 50 -65v-59q-48 0 -119 32zM577 1063q15 18 15 54q0 71 -69 71q-31 0 -31 -48q0 -41 85 -77z" />
    <glyph glyph-name="uni0678.fina" unicode="&#x678;" 
d="M1229 0q-67 0 -134 6t-125 6q-161 0 -186 -10q6 -21 110 -40q166 -31 166 -109q0 -196 -171.5 -310t-397.5 -114q-430 0 -430 400q0 60 70.5 217.5t120.5 157.5q23 0 31.5 -10t8.5 -39q0 -28 -40 -113t-40 -138q0 -227 316 -227q123 0 254 20t131 53q0 23 -116 43
q-151 26 -151 115q0 143 99 230t246 87h238v-225zM898 457l13 72q51 34 74 64q-95 30 -95 101q0 66 44.5 128t105.5 62q101 0 101 -89q0 -24 -20 -65q-81 59 -127 59q-32 0 -32 -29q0 -36 41.5 -63t86.5 -27q50 0 116 32v-114z" />
    <glyph glyph-name="uni0679" unicode="&#x679;" arabic-form="isolated" 
d="M843 554l113 295q107 -176 142.5 -272t35.5 -183q0 -90 -40 -188.5t-90.5 -145t-96 -53.5t-244.5 -7h-218q-435 0 -435 256q0 77 65.5 218t118.5 141q37 0 37 -40q0 -20 -33 -95q-32 -75 -32 -107q0 -148 312 -148h311q201 0 201 51q0 129 -147 278zM890 1130
q0 -188 -258 -188h-231q-83 0 -109 114h112q48 45 48 121q0 254 -35 312l64 104l88 -90q-43 -50 -40 -171l2 -70q1 -28 -16 -125q139 170 244 170q131 0 131 -177zM810 1108q0 35 -22 62t-56 27q-38 0 -89 -39q-20 -15 -120 -102h199q88 0 88 52z" />
    <glyph glyph-name="uni067A" unicode="&#x67a;" arabic-form="isolated" 
d="M843 554l113 295q107 -176 142.5 -272t35.5 -183q0 -90 -40 -188.5t-90.5 -145t-96 -53.5t-244.5 -7h-218q-435 0 -435 256q0 77 65.5 218t118.5 141q37 0 37 -40q0 -20 -33 -95q-32 -75 -32 -107q0 -148 312 -148h311q201 0 201 51q0 129 -147 278zM708 871l-111 -110
l-109 110l99 100l-107 109l109 110l111 -110l-102 -101z" />
    <glyph glyph-name="uni067B" unicode="&#x67b;" arabic-form="isolated" 
d="M843 554l113 295q107 -176 142.5 -272t35.5 -183q0 -90 -40 -188.5t-90.5 -145t-96 -53.5t-244.5 -7h-218q-435 0 -435 256q0 77 65.5 218t118.5 141q37 0 37 -40q0 -20 -33 -95q-32 -75 -32 -107q0 -148 312 -148h311q201 0 201 51q0 129 -147 278zM708 -504l-111 -110
l-109 110l99 100l-107 109l109 110l111 -110l-102 -101z" />
    <glyph glyph-name="uni067C.init" unicode="&#x67c;" 
d="M0 0v225h860q31 0 78.5 14.5t47.5 33.5q0 158 -113 282l117 289q103 -154 139.5 -252t36.5 -215q0 -108 -78 -242.5t-185 -134.5h-903zM1219 1123l-155 -157l-141 136l-153 -148l-154 154l156 156l139 -141l154 154zM809 -103q0 79 41.5 135.5t111.5 56.5q62 0 99.5 -47
t37.5 -115t-54 -119t-122 -51q-54 0 -84 42.5t-30 97.5zM873 -73q0 -58 79 -58q68 0 68 35q0 33 -35.5 64.5t-69.5 31.5q-42 0 -42 -73z" />
    <glyph glyph-name="uni067C.medi" unicode="&#x67c;" 
d="M1229 0h-81q-186 0 -256 38.5t-126 152.5q-112 -191 -223 -191h-543v225h532q120 0 120 104q0 98 -66 255l153 269q84 -265 103 -452q6 -62 19 -87.5t36 -43.5t55 -29t56.5 -13.5t220.5 -2.5v-225zM931 1104l-155 -157l-141 136l-153 -148l-154 154l156 156l139 -141
l154 154zM429 -103q0 79 41.5 135.5t111.5 56.5q62 0 99.5 -47t37.5 -115t-54 -119t-122 -51q-54 0 -84 42.5t-30 97.5zM493 -73q0 -58 79 -58q68 0 68 35q0 33 -35.5 64.5t-69.5 31.5q-42 0 -42 -73z" />
    <glyph glyph-name="uni067C.fina" unicode="&#x67c;" 
d="M1229 225v-225q-185 0 -231 176q-16 -49 -65 -97t-97 -63t-137 -15h-264q-435 0 -435 255q0 77 65.5 218t118.5 141q37 0 37 -40q0 -20 -33 -95q-32 -75 -32 -107q0 -148 312 -148h295q142 0 142 87q0 145 -67 282l130 219q89 -295 90 -410t48 -146.5t123 -31.5zM816 930
l-155 -157l-141 136l-153 -148l-154 154l156 156l139 -141l154 154zM469 -103q0 79 41.5 135.5t111.5 56.5q62 0 99.5 -47t37.5 -115t-54 -119t-122 -51q-54 0 -84 42.5t-30 97.5zM533 -73q0 -58 79 -58q68 0 68 35q0 33 -35.5 64.5t-69.5 31.5q-42 0 -42 -73z" />
    <glyph glyph-name="uni067D.init" unicode="&#x67d;" 
d="M0 0v225h860q31 0 78.5 14.5t47.5 33.5q0 158 -113 282l117 289q103 -154 139.5 -252t36.5 -215q0 -108 -78 -242.5t-185 -134.5h-903zM1101 1291l-119 -136l-121 115l-106 -108l-119 122l115 133l118 -126l108 119zM986 1067l-116 -132l-118 132l118 116z" />
    <glyph glyph-name="uni067D.medi" unicode="&#x67d;" 
d="M1229 0h-81q-186 0 -256 38.5t-126 152.5q-112 -191 -223 -191h-543v225h532q120 0 120 104q0 98 -66 255l153 269q84 -265 103 -452q6 -62 19 -87.5t36 -43.5t55 -29t56.5 -13.5t220.5 -2.5v-225zM841 1291l-119 -136l-121 115l-106 -108l-119 122l115 133l118 -126
l108 119zM726 1067l-116 -132l-118 132l118 116z" />
    <glyph glyph-name="uni067D.fina" unicode="&#x67d;" 
d="M1229 225v-225q-185 0 -231 176q-16 -49 -65 -97t-97 -63t-137 -15h-264q-435 0 -435 255q0 77 65.5 218t118.5 141q37 0 37 -40q0 -20 -33 -95q-32 -75 -32 -107q0 -148 312 -148h295q142 0 142 87q0 145 -67 282l130 219q89 -295 90 -410t48 -146.5t123 -31.5z
M781 1119l-119 -136l-121 115l-106 -108l-119 122l115 133l118 -126l108 119zM666 895l-116 -132l-118 132l118 116z" />
    <glyph glyph-name="uni067E" unicode="&#x67e;" arabic-form="isolated" 
d="M843 554l113 295q107 -176 142.5 -272t35.5 -183q0 -90 -40 -188.5t-90.5 -145t-96 -53.5t-244.5 -7h-218q-435 0 -435 256q0 77 65.5 218t118.5 141q37 0 37 -40q0 -20 -33 -95q-32 -75 -32 -107q0 -148 312 -148h311q201 0 201 51q0 129 -147 278zM801 -258l-119 -136
l-121 115l-106 -108l-119 122l115 133l118 -126l108 119zM686 -482l-116 -132l-118 132l118 116z" />
    <glyph glyph-name="uni067F" unicode="&#x67f;" arabic-form="isolated" 
d="M843 554l113 295q107 -176 142.5 -272t35.5 -183q0 -90 -40 -188.5t-90.5 -145t-96 -53.5t-244.5 -7h-218q-435 0 -435 256q0 77 65.5 218t118.5 141q37 0 37 -40q0 -20 -33 -95q-32 -75 -32 -107q0 -148 312 -148h311q201 0 201 51q0 129 -147 278zM794 882l-110 -111
l-101 102l-108 -110l-110 111l96 96l-105 106l110 109l100 -99l109 107l110 -109l-97 -97zM670 978l-96 97l-95 -96l96 -95z" />
    <glyph glyph-name="uni0680" unicode="&#x680;" arabic-form="isolated" 
d="M843 554l113 295q107 -176 142.5 -272t35.5 -183q0 -90 -40 -188.5t-90.5 -145t-96 -53.5t-244.5 -7h-218q-435 0 -435 256q0 77 65.5 218t118.5 141q37 0 37 -40q0 -20 -33 -95q-32 -75 -32 -107q0 -148 312 -148h311q201 0 201 51q0 129 -147 278zM834 -495l-110 -111
l-101 102l-108 -110l-110 111l96 96l-105 106l110 109l100 -99l109 107l110 -109l-97 -97zM710 -399l-96 97l-95 -96l96 -95z" />
    <glyph glyph-name="uni0681.init" unicode="&#x681;" 
d="M1229 500l-81 -224q-223 0 -295 -18t-212 -110q-226 -148 -446 -148h-195v225h295q127 0 362 121q100 51 166 67q-177 141 -304 141q-50 0 -113 -66q-26 -27 -40 -27q-41 0 -41 72q0 89 81.5 156.5t167.5 67.5q52 0 103 -22t184 -116q105 -74 187.5 -96.5t180.5 -22.5z
M658 931l13 72q51 34 74 64q-95 30 -95 101q0 66 44.5 128t105.5 62q101 0 101 -89q0 -24 -20 -65q-81 59 -127 59q-32 0 -32 -29q0 -36 41.5 -63t86.5 -27q50 0 116 32v-114z" />
    <glyph glyph-name="uni0681.medi" unicode="&#x681;" 
d="M1229 0h-342q-194 0 -194 235q0 31 12 75q-45 -23 -96 -78q-219 -232 -362 -232h-247v225q56 -2 95 -2q221 0 389 106q108 68 190 100q-69 41 -166 79.5t-133 38.5q-67 0 -114 -61q-21 -28 -34 -28q-48 0 -48 75q0 92 83.5 161.5t168.5 69.5q89 0 192 -58
q163 -92 249 -123.5t242 -31.5l-106 -219q-68 16 -161 16q-5 -23 -5 -51q0 -40 30.5 -56t111.5 -16h245v-225zM578 931l13 72q51 34 74 64q-95 30 -95 101q0 66 44.5 128t105.5 62q101 0 101 -89q0 -24 -20 -65q-81 59 -127 59q-32 0 -32 -29q0 -36 41.5 -63t86.5 -27
q50 0 116 32v-114z" />
    <glyph glyph-name="uni0681.fina" unicode="&#x681;" 
d="M1229 0h-353q-183 0 -183 208q0 34 5 83q-111 -42 -229 -156q-143 -139 -143 -266q0 -130 102 -212q96 -78 238 -78q233 0 448 152q11 8 36 8q16 0 16 -15q1 -50 -75 -132q-85 -92 -204 -147q-129 -59 -243 -59q-209 0 -349 140q-135 134 -135 319q0 272 495 584
q-202 113 -276 113q-44 0 -97.5 -41.5t-58.5 -41.5q-35 0 -35 77q0 81 77 155t158 74q56 0 111 -20.5t185 -93.5q179 -100 393 -100l-106 -219q-78 16 -158 16q-7 -17 -7 -45q0 -78 135 -78h253v-225zM558 931l13 72q51 34 74 64q-95 30 -95 101q0 66 44.5 128t105.5 62
q101 0 101 -89q0 -24 -20 -65q-81 59 -127 59q-32 0 -32 -29q0 -36 41.5 -63t86.5 -27q50 0 116 32v-114z" />
    <glyph glyph-name="uni0682.init" unicode="&#x682;" 
d="M1229 500l-81 -224q-223 0 -295 -18t-212 -110q-226 -148 -446 -148h-195v225h295q127 0 362 121q100 51 166 67q-177 141 -304 141q-50 0 -113 -66q-26 -27 -40 -27q-41 0 -41 72q0 89 81.5 156.5t167.5 67.5q52 0 103 -22t184 -116q105 -74 187.5 -96.5t180.5 -22.5z
M928 956l-111 -110l-109 110l99 100l-107 109l109 110l111 -110l-102 -101z" />
    <glyph glyph-name="uni0682.medi" unicode="&#x682;" 
d="M1229 0h-342q-194 0 -194 235q0 31 12 75q-45 -23 -96 -78q-219 -232 -362 -232h-247v225q56 -2 95 -2q221 0 389 106q108 68 190 100q-69 41 -166 79.5t-133 38.5q-67 0 -114 -61q-21 -28 -34 -28q-48 0 -48 75q0 92 83.5 161.5t168.5 69.5q89 0 192 -58
q163 -92 249 -123.5t242 -31.5l-106 -219q-68 16 -161 16q-5 -23 -5 -51q0 -40 30.5 -56t111.5 -16h245v-225zM828 956l-111 -110l-109 110l99 100l-107 109l109 110l111 -110l-102 -101z" />
    <glyph glyph-name="uni0682.fina" unicode="&#x682;" 
d="M1229 0h-353q-183 0 -183 208q0 34 5 83q-111 -42 -229 -156q-143 -139 -143 -266q0 -130 102 -212q96 -78 238 -78q233 0 448 152q11 8 36 8q16 0 16 -15q1 -50 -75 -132q-85 -92 -204 -147q-129 -59 -243 -59q-209 0 -349 140q-135 134 -135 319q0 272 495 584
q-202 113 -276 113q-44 0 -97.5 -41.5t-58.5 -41.5q-35 0 -35 77q0 81 77 155t158 74q56 0 111 -20.5t185 -93.5q179 -100 393 -100l-106 -219q-78 16 -158 16q-7 -17 -7 -45q0 -78 135 -78h253v-225zM828 956l-111 -110l-109 110l99 100l-107 109l109 110l111 -110
l-102 -101z" />
    <glyph glyph-name="uni0683" unicode="&#x683;" arabic-form="isolated" 
d="M1153 -408q-85 -92 -204 -147q-129 -59 -243 -59q-209 0 -349 140q-135 134 -135 319q0 272 454 485q-177 80 -213 80q-67 0 -133.5 -51.5t-63.5 -51.5q-38 0 -38 78q0 102 113 180q108 74 234 74q19 0 195.5 -65t272.5 -65l65 3l-78 -238q-192 0 -302 -42
q-120 -45 -213 -127q-127 -111 -127 -236q0 -130 102 -212q96 -78 238 -78q233 0 448 152q11 8 36 8q6 -17 11.5 -41t-70.5 -106zM1091 -60l-155 -157l-141 136l-153 -148l-154 154l156 156l139 -141l154 154z" />
    <glyph glyph-name="uni0684" unicode="&#x684;" arabic-form="isolated" 
d="M1153 -408q-85 -92 -204 -147q-129 -59 -243 -59q-209 0 -349 140q-135 134 -135 319q0 272 454 485q-177 80 -213 80q-67 0 -133.5 -51.5t-63.5 -51.5q-38 0 -38 78q0 102 113 180q108 74 234 74q19 0 195.5 -65t272.5 -65l65 3l-78 -238q-192 0 -302 -42
q-120 -45 -213 -127q-127 -111 -127 -236q0 -130 102 -212q96 -78 238 -78q233 0 448 152q11 8 36 8q6 -17 11.5 -41t-70.5 -106zM908 -204l-111 -110l-109 110l99 100l-107 109l109 110l111 -110l-102 -101z" />
    <glyph glyph-name="uni0685.init" unicode="&#x685;" 
d="M1229 500l-81 -224q-223 0 -295 -18t-212 -110q-226 -148 -446 -148h-195v225h295q127 0 362 121q100 51 166 67q-177 141 -304 141q-50 0 -113 -66q-26 -27 -40 -27q-41 0 -41 72q0 89 81.5 156.5t167.5 67.5q52 0 103 -22t184 -116q105 -74 187.5 -96.5t180.5 -22.5z
M924 1326l-156 -154l-153 154l153 153zM1064 1049l-154 -157l-141 141l-154 -154l-153 154l156 156l138 -140l154 153z" />
    <glyph glyph-name="uni0685.medi" unicode="&#x685;" 
d="M1229 0h-342q-194 0 -194 235q0 31 12 75q-45 -23 -96 -78q-219 -232 -362 -232h-247v225q56 -2 95 -2q221 0 389 106q108 68 190 100q-69 41 -166 79.5t-133 38.5q-67 0 -114 -61q-21 -28 -34 -28q-48 0 -48 75q0 92 83.5 161.5t168.5 69.5q89 0 192 -58
q163 -92 249 -123.5t242 -31.5l-106 -219q-68 16 -161 16q-5 -23 -5 -51q0 -40 30.5 -56t111.5 -16h245v-225zM824 1326l-156 -154l-153 154l153 153zM964 1049l-154 -157l-141 141l-154 -154l-153 154l156 156l138 -140l154 153z" />
    <glyph glyph-name="uni0685.fina" unicode="&#x685;" 
d="M1229 0h-353q-183 0 -183 208q0 34 5 83q-111 -42 -229 -156q-143 -139 -143 -266q0 -130 102 -212q96 -78 238 -78q233 0 448 152q11 8 36 8q16 0 16 -15q1 -50 -75 -132q-85 -92 -204 -147q-129 -59 -243 -59q-209 0 -349 140q-135 134 -135 319q0 272 495 584
q-202 113 -276 113q-44 0 -97.5 -41.5t-58.5 -41.5q-35 0 -35 77q0 81 77 155t158 74q56 0 111 -20.5t185 -93.5q179 -100 393 -100l-106 -219q-78 16 -158 16q-7 -17 -7 -45q0 -78 135 -78h253v-225zM824 1326l-156 -154l-153 154l153 153zM964 1049l-154 -157l-141 141
l-154 -154l-153 154l156 156l138 -140l154 153z" />
    <glyph glyph-name="uni0686" unicode="&#x686;" arabic-form="isolated" 
d="M948 -38l-83 -82l-85 90l83 79zM1228 -276q1 -50 -75 -132q-85 -92 -204 -147q-129 -59 -243 -59q-209 0 -349 140q-135 134 -135 319q0 272 454 485q-177 80 -213 80q-67 0 -133.5 -51.5t-63.5 -51.5q-38 0 -38 78q0 102 113 180q108 74 234 74q19 0 195.5 -65
t272.5 -65q31 0 65 3l-78 -238q-192 0 -302 -42q-120 -45 -213 -127q-127 -111 -127 -236q0 -130 102 -212q96 -78 238 -78q233 0 448 152q11 8 36 8q16 0 16 -15zM777 -32l-82 -82l-86 86l83 78zM865 -197l-84 -82l-86 83l85 84z" />
    <glyph glyph-name="uni0687" unicode="&#x687;" arabic-form="isolated" 
d="M1153 -408q-85 -92 -204 -147q-129 -59 -243 -59q-209 0 -349 140q-135 134 -135 319q0 272 454 485q-177 80 -213 80q-67 0 -133.5 -51.5t-63.5 -51.5q-38 0 -38 78q0 102 113 180q108 74 234 74q19 0 195.5 -65t272.5 -65l65 3l-78 -238q-192 0 -302 -42
q-120 -45 -213 -127q-127 -111 -127 -236q0 -130 102 -212q96 -78 238 -78q233 0 448 152q11 8 36 8q6 -17 11.5 -41t-70.5 -106zM994 -195l-110 -111l-101 102l-108 -110l-110 111l96 96l-105 106l110 109l100 -99l109 107l110 -109l-97 -97zM870 -99l-96 97l-95 -96
l96 -95z" />
    <glyph glyph-name="uni0688" unicode="&#x688;" arabic-form="isolated" 
d="M611 678l28 245q179 -29 301.5 -220t122.5 -360q0 -186 -86.5 -270t-283.5 -84q-320 0 -320 201q0 40 30 106.5t57 66.5q29 0 34 -73q2 -38 42 -55t159 -17q245 0 245 56q0 121 -101.5 253.5t-227.5 150.5zM990 1230q0 -188 -258 -188h-231q-83 0 -109 114h112
q48 45 48 121q0 254 -35 312l64 104l88 -90q-43 -50 -40 -171l2 -70q1 -28 -16 -125q139 170 244 170q131 0 131 -177zM910 1208q0 35 -22 62t-56 27q-38 0 -89 -39q-20 -15 -120 -102h199q88 0 88 52z" />
    <glyph glyph-name="uni0689.fina" unicode="&#x689;" 
d="M1229 1l-189 -1q-151 0 -226 174q-20 -51 -88.5 -94t-162.5 -43q-150 0 -209.5 49t-60.5 148q1 41 30.5 107t56.5 66q30 0 34 -73q4 -72 161 -72q110 1 154.5 23t44.5 78q0 86 -24 248.5t-40 196.5l172 229q15 -135 39 -500q1 -99 14 -230q33 -82 123 -82h171v-224z
M469 -66q0 79 41.5 135.5t111.5 56.5q62 0 99.5 -47t37.5 -115t-54 -119t-122 -51q-54 0 -84 42.5t-30 97.5zM533 -36q0 -58 79 -58q68 0 68 35q0 33 -35.5 64.5t-69.5 31.5q-42 0 -42 -73z" />
    <glyph glyph-name="uni068A.fina" unicode="&#x68a;" 
d="M1229 1l-189 -1q-151 0 -226 174q-20 -51 -88.5 -94t-162.5 -43q-150 0 -209.5 49t-60.5 148q1 41 30.5 107t56.5 66q30 0 34 -73q4 -72 161 -72q110 1 154.5 23t44.5 78q0 86 -24 248.5t-40 196.5l172 229q15 -135 39 -500q1 -99 14 -230q33 -82 123 -82h171v-224z
M798 -378l-153 -154l-154 154l154 153z" />
    <glyph glyph-name="uni068B.fina" unicode="&#x68b;" 
d="M1229 1l-189 -1q-151 0 -226 174q-20 -51 -88.5 -94t-162.5 -43q-150 0 -209.5 49t-60.5 148q1 41 30.5 107t56.5 66q30 0 34 -73q4 -72 161 -72q110 1 154.5 23t44.5 78q0 86 -24 248.5t-40 196.5l172 229q15 -135 39 -500q1 -99 14 -230q33 -82 123 -82h171v-224z
M1050 1230q0 -188 -258 -188h-231q-83 0 -109 114h112q48 45 48 121q0 254 -35 312l64 104l88 -90q-43 -50 -40 -171l2 -70q1 -28 -16 -125q139 170 244 170q131 0 131 -177zM970 1208q0 35 -22 62t-56 27q-38 0 -89 -39q-20 -15 -120 -102h199q88 0 88 52zM798 -378
l-153 -154l-154 154l154 153z" />
    <glyph glyph-name="uni068C" unicode="&#x68c;" arabic-form="isolated" 
d="M611 678l28 245q179 -29 301.5 -220t122.5 -360q0 -186 -86.5 -270t-283.5 -84q-320 0 -320 201q0 40 30 106.5t57 66.5q29 0 34 -73q2 -38 42 -55t159 -17q245 0 245 56q0 121 -101.5 253.5t-227.5 150.5zM931 1230l-155 -157l-141 136l-153 -148l-154 154l156 156
l139 -141l154 154z" />
    <glyph glyph-name="uni068D" unicode="&#x68d;" arabic-form="isolated" 
d="M611 678l28 245q179 -29 301.5 -220t122.5 -360q0 -186 -86.5 -270t-283.5 -84q-320 0 -320 201q0 40 30 106.5t57 66.5q29 0 34 -73q2 -38 42 -55t159 -17q245 0 245 56q0 121 -101.5 253.5t-227.5 150.5zM991 -384l-155 -157l-141 136l-153 -148l-154 154l156 156
l139 -141l154 154z" />
    <glyph glyph-name="uni068E" unicode="&#x68e;" arabic-form="isolated" 
d="M611 678l28 245q179 -29 301.5 -220t122.5 -360q0 -186 -86.5 -270t-283.5 -84q-320 0 -320 201q0 40 30 106.5t57 66.5q29 0 34 -73q2 -38 42 -55t159 -17q245 0 245 56q0 121 -101.5 253.5t-227.5 150.5zM773 1526l-156 -154l-153 154l153 153zM913 1249l-154 -157
l-141 141l-154 -154l-153 154l156 156l138 -140l154 153z" />
    <glyph glyph-name="uni068F.fina" unicode="&#x68f;" 
d="M1229 1l-189 -1q-151 0 -226 174q-20 -51 -88.5 -94t-162.5 -43q-150 0 -209.5 49t-60.5 148q1 41 30.5 107t56.5 66q30 0 34 -73q4 -72 161 -72q110 1 154.5 23t44.5 78q0 86 -24 248.5t-40 196.5l172 229q15 -135 39 -500q1 -99 14 -230q33 -82 123 -82h171v-224z
M961 1477l-119 -136l-121 115l-106 -108l-119 122l115 133l118 -126l108 119zM846 1253l-116 -132l-118 132l118 116z" />
    <glyph glyph-name="uni0690.fina" unicode="&#x690;" 
d="M1229 1l-189 -1q-151 0 -226 174q-20 -51 -88.5 -94t-162.5 -43q-150 0 -209.5 49t-60.5 148q1 41 30.5 107t56.5 66q30 0 34 -73q4 -72 161 -72q110 1 154.5 23t44.5 78q0 86 -24 248.5t-40 196.5l172 229q15 -135 39 -500q1 -99 14 -230q33 -82 123 -82h171v-224z
M994 1240l-110 -111l-101 102l-108 -110l-110 111l96 96l-105 106l110 109l100 -99l109 107l110 -109l-97 -97zM870 1336l-96 97l-95 -96l96 -95z" />
    <glyph glyph-name="uni0691" unicode="&#x691;" arabic-form="isolated" 
d="M708 534l102 273q239 -230 239 -576q0 -220 -132.5 -435t-329.5 -215q-84 0 -267.5 67.5t-183.5 113.5q0 32 50 32q32 0 90 -14q57 -15 136 -15q168 0 337.5 142t169.5 244q0 192 -211 383zM990 1100q0 -188 -258 -188h-231q-83 0 -109 114h112q48 45 48 121
q0 254 -35 312l64 104l88 -90q-43 -50 -40 -171l2 -70q1 -28 -16 -125q139 170 244 170q131 0 131 -177zM910 1078q0 35 -22 62t-56 27q-38 0 -89 -39q-20 -15 -120 -102h199q88 0 88 52z" />
    <glyph glyph-name="uni0692.fina" unicode="&#x692;" 
d="M1229 225v-225h-90q-65 0 -117.5 30.5t-69.5 77.5q-35 -226 -152.5 -377.5t-286.5 -151.5q-83 0 -247 67t-164 114q0 32 50 32q7 0 68 -14q61 -13 138 -13q167 0 335 142t168 245q0 193 -165 371l137 270q50 -90 84 -188t44.5 -206t46.5 -140.5t131 -33.5h90zM897 1359
q-1 -3 -69 -98l-107 -149l-108 149q-67 93 -68 98q-4 19 38 29t52 -2q3 -3 48 -71q11 -17 38 -59l38 59q20 32 47 71q10 12 53 2q42 -10 38 -29z" />
    <glyph glyph-name="uni0693.fina" unicode="&#x693;" 
d="M1229 225v-225h-90q-65 0 -117.5 30.5t-69.5 77.5q-35 -226 -152.5 -377.5t-286.5 -151.5q-83 0 -247 67t-164 114q0 32 50 32q7 0 68 -14q61 -13 138 -13q167 0 335 142t168 245q0 193 -165 371l137 270q50 -90 84 -188t44.5 -206t46.5 -140.5t131 -33.5h90zM779 -279
q0 79 41.5 135.5t111.5 56.5q62 0 99.5 -47t37.5 -115t-54 -119t-122 -51q-54 0 -84 42.5t-30 97.5zM843 -249q0 -58 79 -58q68 0 68 35q0 33 -35.5 64.5t-69.5 31.5q-42 0 -42 -73z" />
    <glyph glyph-name="uni0694.fina" unicode="&#x694;" 
d="M1229 225v-225h-90q-65 0 -117.5 30.5t-69.5 77.5q-35 -226 -152.5 -377.5t-286.5 -151.5q-83 0 -247 67t-164 114q0 32 50 32q7 0 68 -14q61 -13 138 -13q167 0 335 142t168 245q0 193 -165 371l137 270q50 -90 84 -188t44.5 -206t46.5 -140.5t131 -33.5h90zM1228 -265
l-153 -154l-154 154l154 153z" />
    <glyph glyph-name="uni0695.fina" unicode="&#x695;" 
d="M1229 225v-225h-90q-65 0 -117.5 30.5t-69.5 77.5q-35 -226 -152.5 -377.5t-286.5 -151.5q-83 0 -247 67t-164 114q0 32 50 32q7 0 68 -14q61 -13 138 -13q167 0 335 142t168 245q0 193 -165 371l137 270q50 -90 84 -188t44.5 -206t46.5 -140.5t131 -33.5h90zM1225 -321
q-1 -3 -69 -98l-107 -149l-108 149q-67 93 -68 98q-4 19 38 29t52 -2q3 -3 48 -71q11 -17 38 -59l38 59q20 32 47 71q10 12 53 2q42 -10 38 -29z" />
    <glyph glyph-name="uni0696.fina" unicode="&#x696;" 
d="M1229 225v-225h-90q-65 0 -117.5 30.5t-69.5 77.5q-35 -226 -152.5 -377.5t-286.5 -151.5q-83 0 -247 67t-164 114q0 32 50 32q7 0 68 -14q61 -13 138 -13q167 0 335 142t168 245q0 193 -165 371l137 270q50 -90 84 -188t44.5 -206t46.5 -140.5t131 -33.5h90zM1228 -265
l-153 -154l-154 154l154 153zM758 130l-153 -154l-154 154l154 153z" />
    <glyph glyph-name="uni0697.fina" unicode="&#x697;" 
d="M1229 225v-225h-90q-65 0 -117.5 30.5t-69.5 77.5q-35 -226 -152.5 -377.5t-286.5 -151.5q-83 0 -247 67t-164 114q0 32 50 32q7 0 68 -14q61 -13 138 -13q167 0 335 142t168 245q0 193 -165 371l137 270q50 -90 84 -188t44.5 -206t46.5 -140.5t131 -33.5h90zM951 1130
l-155 -157l-141 136l-153 -148l-154 154l156 156l139 -141l154 154z" />
    <glyph glyph-name="uni0698" unicode="&#x698;" arabic-form="isolated" 
d="M708 534l102 273q239 -230 239 -576q0 -220 -132.5 -435t-329.5 -215q-84 0 -267.5 67.5t-183.5 113.5q0 32 50 32q32 0 90 -14q57 -15 136 -15q168 0 337.5 142t169.5 244q0 192 -211 383zM947 1381l-156 -154l-153 154l153 153zM1087 1104l-154 -157l-141 141
l-154 -154l-153 154l156 156l138 -140l154 153z" />
    <glyph glyph-name="uni0699.fina" unicode="&#x699;" 
d="M1229 225v-225h-90q-65 0 -117.5 30.5t-69.5 77.5q-35 -226 -152.5 -377.5t-286.5 -151.5q-83 0 -247 67t-164 114q0 32 50 32q7 0 68 -14q61 -13 138 -13q167 0 335 142t168 245q0 193 -165 371l137 270q50 -90 84 -188t44.5 -206t46.5 -140.5t131 -33.5h90zM894 1040
l-110 -111l-101 102l-108 -110l-110 111l96 96l-105 106l110 109l100 -99l109 107l110 -109l-97 -97zM770 1136l-96 97l-95 -96l96 -95z" />
    <glyph glyph-name="uni069A.init" unicode="&#x69a;" 
d="M751 48q-65 -48 -132 -48q-112 0 -171 62q-74 -62 -171 -62h-277v225h283q60 0 100 131q66 218 154 218q54 0 54 -58q0 -59 -27 -140q-26 -80 -26 -112q0 -22 9 -31.5t48 -9.5q57 0 68 57q58 298 122 298q65 0 65 -98q0 -31 -10 -89q-10 -57 -10 -88q0 -40 17 -61t82 -21
q80 0 80 109q0 111 -95 270l151 210q53 -75 82.5 -195t29.5 -224q0 -183 -75 -287t-221 -104q-78 0 -130 48zM958 1035l-153 -154l-154 154l154 153zM898 -378l-153 -154l-154 154l154 153z" />
    <glyph glyph-name="uni069A.medi" unicode="&#x69a;" 
d="M1229 225v-225q-180 0 -226 162q-46 -101 -96 -131.5t-123 -30.5q-77 0 -130 47q-64 -47 -132 -47q-111 0 -171 61q-72 -61 -171 -61h-180v225h185q27 1 56.5 40.5t44.5 89.5q67 218 154 218q54 0 54 -58q0 -59 -26 -139q-27 -81 -27 -113q0 -26 11 -33.5t46 -7.5
q57 0 68 57q58 298 122 298q65 0 65 -98q0 -31 -10 -88q-10 -58 -10 -89q0 -39 17 -60.5t82 -21.5q80 0 80 109q0 132 -72 272l133 205q37 -86 61 -212t24 -206t42.5 -121.5t128.5 -41.5zM858 1035l-153 -154l-154 154l154 153zM798 -378l-153 -154l-154 154l154 153z" />
    <glyph glyph-name="uni069A.fina" unicode="&#x69a;" 
d="M1229 225v-225q-106 0 -157 48q-66 -46 -165 -46q-86 0 -123 56q-32 -60 -108 -60q-52 0 -82 34q0 -176 -82 -290t-233 -114q-279 0 -279 456q0 104 71.5 315t137.5 211q30 0 30 -54q0 -43 -62 -184q-54 -123 -54 -297q0 -103 45 -164t123 -61q114 0 152 52t38 144
q0 126 -66 279q37 184 50 313q102 -122 130 -407q24 -23 60 -23q48 0 77 154q25 130 49.5 175t67.5 45t43 -95q0 -28 -10 -89t-10 -90q0 -93 80 -93q35 0 59 28.5t24 68.5q0 154 -71 318l145 202q67 -282 68.5 -444.5t51.5 -162.5zM998 1035l-153 -154l-154 154l154 153z
M998 -378l-153 -154l-154 154l154 153z" />
    <glyph glyph-name="uni069B.init" unicode="&#x69b;" 
d="M751 48q-65 -48 -132 -48q-112 0 -171 62q-74 -62 -171 -62h-277v225h283q60 0 100 131q66 218 154 218q54 0 54 -58q0 -59 -27 -140q-26 -80 -26 -112q0 -22 9 -31.5t48 -9.5q57 0 68 57q58 298 122 298q65 0 65 -98q0 -31 -10 -89q-10 -57 -10 -88q0 -40 17 -61t82 -21
q80 0 80 109q0 111 -95 270l151 210q53 -75 82.5 -195t29.5 -224q0 -183 -75 -287t-221 -104q-78 0 -130 48zM961 -258l-119 -136l-121 115l-106 -108l-119 122l115 133l118 -126l108 119zM846 -482l-116 -132l-118 132l118 116z" />
    <glyph glyph-name="uni069B.medi" unicode="&#x69b;" 
d="M1229 225v-225q-180 0 -226 162q-46 -101 -96 -131.5t-123 -30.5q-77 0 -130 47q-64 -47 -132 -47q-111 0 -171 61q-72 -61 -171 -61h-180v225h185q27 1 56.5 40.5t44.5 89.5q67 218 154 218q54 0 54 -58q0 -59 -26 -139q-27 -81 -27 -113q0 -26 11 -33.5t46 -7.5
q57 0 68 57q58 298 122 298q65 0 65 -98q0 -31 -10 -88q-10 -58 -10 -89q0 -39 17 -60.5t82 -21.5q80 0 80 109q0 132 -72 272l133 205q37 -86 61 -212t24 -206t42.5 -121.5t128.5 -41.5zM861 -258l-119 -136l-121 115l-106 -108l-119 122l115 133l118 -126l108 119z
M746 -482l-116 -132l-118 132l118 116z" />
    <glyph glyph-name="uni069B.fina" unicode="&#x69b;" 
d="M1229 225v-225q-106 0 -157 48q-66 -46 -165 -46q-86 0 -123 56q-32 -60 -108 -60q-52 0 -82 34q0 -176 -82 -290t-233 -114q-279 0 -279 456q0 104 71.5 315t137.5 211q30 0 30 -54q0 -43 -62 -184q-54 -123 -54 -297q0 -103 45 -164t123 -61q114 0 152 52t38 144
q0 126 -66 279q37 184 50 313q102 -122 130 -407q24 -23 60 -23q48 0 77 154q25 130 49.5 175t67.5 45t43 -95q0 -28 -10 -89t-10 -90q0 -93 80 -93q35 0 59 28.5t24 68.5q0 154 -71 318l145 202q67 -282 68.5 -444.5t51.5 -162.5zM1061 -258l-119 -136l-121 115l-106 -108
l-119 122l115 133l118 -126l108 119zM946 -482l-116 -132l-118 132l118 116z" />
    <glyph glyph-name="uni069C.init" unicode="&#x69c;" 
d="M751 48q-65 -48 -132 -48q-112 0 -171 62q-74 -62 -171 -62h-277v225h283q60 0 100 131q66 218 154 218q54 0 54 -58q0 -59 -27 -140q-26 -80 -26 -112q0 -22 9 -31.5t48 -9.5q57 0 68 57q58 298 122 298q65 0 65 -98q0 -31 -10 -89q-10 -57 -10 -88q0 -40 17 -61t82 -21
q80 0 80 109q0 111 -95 270l151 210q53 -75 82.5 -195t29.5 -224q0 -183 -75 -287t-221 -104q-78 0 -130 48zM961 -258l-119 -136l-121 115l-106 -108l-119 122l115 133l118 -126l108 119zM846 -482l-116 -132l-118 132l118 116zM873 1426l-156 -154l-153 154l153 153z
M1013 1149l-154 -157l-141 141l-154 -154l-153 154l156 156l138 -140l154 153z" />
    <glyph glyph-name="uni069C.medi" unicode="&#x69c;" 
d="M1229 225v-225q-180 0 -226 162q-46 -101 -96 -131.5t-123 -30.5q-77 0 -130 47q-64 -47 -132 -47q-111 0 -171 61q-72 -61 -171 -61h-180v225h185q27 1 56.5 40.5t44.5 89.5q67 218 154 218q54 0 54 -58q0 -59 -26 -139q-27 -81 -27 -113q0 -26 11 -33.5t46 -7.5
q57 0 68 57q58 298 122 298q65 0 65 -98q0 -31 -10 -88q-10 -58 -10 -89q0 -39 17 -60.5t82 -21.5q80 0 80 109q0 132 -72 272l133 205q37 -86 61 -212t24 -206t42.5 -121.5t128.5 -41.5zM861 -258l-119 -136l-121 115l-106 -108l-119 122l115 133l118 -126l108 119z
M746 -482l-116 -132l-118 132l118 116zM773 1426l-156 -154l-153 154l153 153zM913 1149l-154 -157l-141 141l-154 -154l-153 154l156 156l138 -140l154 153z" />
    <glyph glyph-name="uni069C.fina" unicode="&#x69c;" 
d="M1229 225v-225q-106 0 -157 48q-66 -46 -165 -46q-86 0 -123 56q-32 -60 -108 -60q-52 0 -82 34q0 -176 -82 -290t-233 -114q-279 0 -279 456q0 104 71.5 315t137.5 211q30 0 30 -54q0 -43 -62 -184q-54 -123 -54 -297q0 -103 45 -164t123 -61q114 0 152 52t38 144
q0 126 -66 279q37 184 50 313q102 -122 130 -407q24 -23 60 -23q48 0 77 154q25 130 49.5 175t67.5 45t43 -95q0 -28 -10 -89t-10 -90q0 -93 80 -93q35 0 59 28.5t24 68.5q0 154 -71 318l145 202q67 -282 68.5 -444.5t51.5 -162.5zM1061 -258l-119 -136l-121 115l-106 -108
l-119 122l115 133l118 -126l108 119zM946 -482l-116 -132l-118 132l118 116zM873 1426l-156 -154l-153 154l153 153zM1013 1149l-154 -157l-141 141l-154 -154l-153 154l156 156l138 -140l154 153z" />
    <glyph glyph-name="uni069D.init" unicode="&#x69d;" 
d="M316 73q-92 -73 -316 -73v225h104q72 0 109 73q52 149 65.5 169t30.5 30t37 10q47 0 47 -60q0 -24 -12 -84q-11 -61 -11 -84q0 -71 102 -71q169 320 271.5 417.5t203.5 97.5q237 0 237 -353q0 -127 -55.5 -210t-166.5 -121.5t-371 -38.5q-206 0 -275 73zM627 225h284
q128 0 128 104q0 170 -133 170q-121 0 -279 -274zM1051 -384l-155 -157l-141 136l-153 -148l-154 154l156 156l139 -141l154 154z" />
    <glyph glyph-name="uni069D.medi" unicode="&#x69d;" 
d="M1144 244q15 -19 85 -19v-225q-144 0 -198 96q-53 -56 -142 -76t-298 -20q-206 0 -275 73q-92 -73 -316 -73v225h104q72 0 109 73q52 149 65.5 169t30.5 30t37 10q47 0 47 -60q0 -24 -12 -84q-11 -61 -11 -84q0 -71 102 -71q169 320 271.5 417.5t203.5 97.5
q119 0 179 -93t60 -239q0 -92 -42 -147zM627 225h284q128 0 128 104q0 170 -133 170q-121 0 -279 -274zM1051 -384l-155 -157l-141 136l-153 -148l-154 154l156 156l139 -141l154 154z" />
    <glyph glyph-name="uni069D.fina" unicode="&#x69d;" 
d="M1139 255q28 -30 90 -30v-225q-105 0 -176 92q-129 -93 -286 -93q-141 0 -194 36q-45 -421 -306 -421q-147 0 -205.5 113.5t-58.5 379.5q0 142 73 322t127 180q39 0 39 -34q0 -33 -64 -200q-57 -150 -57 -303q0 -97 47 -160t118 -63q185 0 185 196q0 123 -59 274l51 331
q110 -309 113 -442q23 0 38 2q121 304 198.5 410.5t146.5 106.5q214 0 214 -336q0 -106 -34 -136zM731 226q63 -9 204 -9q101 0 101 88q0 87 -37.5 140t-90.5 53q-85 0 -177 -272zM1151 -384l-155 -157l-141 136l-153 -148l-154 154l156 156l139 -141l154 154z" />
    <glyph glyph-name="uni069E.init" unicode="&#x69e;" 
d="M316 73q-92 -73 -316 -73v225h104q72 0 109 73q52 149 65.5 169t30.5 30t37 10q47 0 47 -60q0 -24 -12 -84q-11 -61 -11 -84q0 -71 102 -71q169 320 271.5 417.5t203.5 97.5q237 0 237 -353q0 -127 -55.5 -210t-166.5 -121.5t-371 -38.5q-206 0 -275 73zM627 225h284
q128 0 128 104q0 170 -133 170q-121 0 -279 -274zM973 1426l-156 -154l-153 154l153 153zM1113 1149l-154 -157l-141 141l-154 -154l-153 154l156 156l138 -140l154 153z" />
    <glyph glyph-name="uni069E.medi" unicode="&#x69e;" 
d="M1144 244q15 -19 85 -19v-225q-144 0 -198 96q-53 -56 -142 -76t-298 -20q-206 0 -275 73q-92 -73 -316 -73v225h104q72 0 109 73q52 149 65.5 169t30.5 30t37 10q47 0 47 -60q0 -24 -12 -84q-11 -61 -11 -84q0 -71 102 -71q169 320 271.5 417.5t203.5 97.5
q119 0 179 -93t60 -239q0 -92 -42 -147zM627 225h284q128 0 128 104q0 170 -133 170q-121 0 -279 -274zM973 1426l-156 -154l-153 154l153 153zM1113 1149l-154 -157l-141 141l-154 -154l-153 154l156 156l138 -140l154 153z" />
    <glyph glyph-name="uni069E.fina" unicode="&#x69e;" 
d="M1139 255q28 -30 90 -30v-225q-105 0 -176 92q-129 -93 -286 -93q-141 0 -194 36q-45 -421 -306 -421q-147 0 -205.5 113.5t-58.5 379.5q0 142 73 322t127 180q39 0 39 -34q0 -33 -64 -200q-57 -150 -57 -303q0 -97 47 -160t118 -63q185 0 185 196q0 123 -59 274l51 331
q110 -309 113 -442q23 0 38 2q121 304 198.5 410.5t146.5 106.5q214 0 214 -336q0 -106 -34 -136zM731 226q63 -9 204 -9q101 0 101 88q0 87 -37.5 140t-90.5 53q-85 0 -177 -272zM973 1426l-156 -154l-153 154l153 153zM1113 1149l-154 -157l-141 141l-154 -154l-153 154
l156 156l138 -140l154 153z" />
    <glyph glyph-name="uni069F.fina" unicode="&#x69f;" 
d="M1144 243q18 -18 85 -18v-225q-140 0 -198 96q-96 -96 -359 -96h-466q-64 0 -122.5 62t-83.5 163h221q95 90 95 239q0 506 -68 618l126 205l173 -177q-78 -92 -78 -339l3 -138q0 -67 -31 -248q274 336 482 336q263 0 263 -332q0 -80 -42 -146zM456 225h393q174 0 174 103
q0 77 -46.5 127t-107.5 50q-37 0 -87.5 -24.5t-87.5 -53t-238 -202.5zM1073 1426l-156 -154l-153 154l153 153zM1213 1149l-154 -157l-141 141l-154 -154l-153 154l156 156l138 -140l154 153z" />
    <glyph glyph-name="uni06A0.init" unicode="&#x6a0;" 
d="M993 405l-32 -228q-82 -19 -252 -69q-368 -108 -563 -108h-146v225h45q188 0 294 22q-83 75 -83 120q0 141 114 272.5t262 131.5q120 0 215.5 -71.5t95.5 -139.5q0 -46 -25 -46q-10 0 -30 18q-80 70 -263 70q-59 0 -139.5 -41t-80.5 -90q0 -70 78.5 -108.5t187.5 -38.5
q36 0 82 8t240 73zM713 1426l-156 -154l-153 154l153 153zM853 1149l-154 -157l-141 141l-154 -154l-153 154l156 156l138 -140l154 153z" />
    <glyph glyph-name="uni06A0.medi" unicode="&#x6a0;" 
d="M1229 0h-177q-220 0 -327 268q-53 -27 -120 -92q-181 -176 -344 -176h-261v225h272q48 0 101.5 15.5t262.5 149.5q-78 66 -214 76l85 219q157 45 249 45q286 0 286 -188q0 -118 -201 -218q47 -59 123.5 -79t264.5 -20v-225zM589 572q98 -47 174 -124q36 11 78.5 41.5
t42.5 51.5q0 64 -129 64q-76 0 -166 -33zM873 1426l-156 -154l-153 154l153 153zM1013 1149l-154 -157l-141 141l-154 -154l-153 154l156 156l138 -140l154 153z" />
    <glyph glyph-name="uni06A0.fina" unicode="&#x6a0;" 
d="M1229 -274q0 -51 -78 -140q-82 -95 -186.5 -147.5t-205.5 -52.5q-164 0 -270 51q-151 74 -210.5 170.5t-59.5 254.5q0 117 154 295q114 132 246 232q-62 65 -211 76l85 219q169 45 249 45q206 0 267 -77q32 -42 32 -108q0 -114 -212 -219q36 -59 116 -79.5t284 -20.5
v-225h-194q-214 0 -330 277q-108 -77 -210 -207q-47 -70 -58.5 -96.5t-11.5 -80.5q0 -62 57.5 -133t134.5 -100q84 -32 159 -32q94 0 156.5 18.5t244.5 83.5q23 8 37.5 8t14.5 -12zM884 542q0 64 -129 64q-71 0 -166 -34q105 -54 174 -123q38 12 79.5 42.5t41.5 50.5z
M873 1426l-156 -154l-153 154l153 153zM1013 1149l-154 -157l-141 141l-154 -154l-153 154l156 156l138 -140l154 153z" />
    <glyph glyph-name="uni06A2.init" unicode="&#x6a2;" 
d="M0 0v225h783q102 0 156.5 8t89.5 39t35 84q-83 -34 -131 -34q-77 0 -149.5 36.5t-72.5 98.5q0 131 78 289t181 158q104 0 173 -158.5t69 -304.5q0 -253 -88.5 -347t-343.5 -94h-780zM1020 540q-6 56 -31 107t-52 51q-33 0 -58.5 -59.5t-25.5 -106.5q0 -28 62 -28
q46 0 105 36zM1122 -378l-153 -154l-154 154l154 153z" />
    <glyph glyph-name="uni06A2.medi" unicode="&#x6a2;" 
d="M1229 0q-97 0 -155.5 17.5t-107.5 77.5q-139 -95 -426 -95h-540v225h353q349 0 454 22q-103 128 -103 216t106 218t196 130q68 0 116.5 -76.5t48.5 -154.5q0 -212 -72 -332q20 -23 130 -23v-225zM969 326q40 59 50 99.5t10 108.5q0 36 -23.5 63t-58.5 27q-36 0 -65 -35
t-29 -72q0 -75 116 -191zM1116 -378l-153 -154l-154 154l154 153z" />
    <glyph glyph-name="uni06A2.fina" unicode="&#x6a2;" 
d="M1229 0q-93 0 -149.5 17t-107.5 80q-89 -62 -186 -96t-286 -34q-227 0 -318 27.5t-136.5 87t-45.5 150.5q0 78 58 214.5t120 136.5q43 0 43 -42q0 -21 -30 -94q-29 -74 -29 -111q0 -71 78 -107t285 -36q205 0 288 57q-109 119 -109 186q0 89 109.5 233t198.5 144
q69 0 117 -76.5t48 -153.5q0 -212 -72 -332q23 -26 124 -26v-225zM1036 536q0 36 -24 63t-59 27q-36 0 -64.5 -34.5t-28.5 -71.5q0 -76 115 -191q61 90 61 207zM1119 -378l-153 -154l-154 154l154 153z" />
    <glyph glyph-name="uni06A3.init" unicode="&#x6a3;" 
d="M0 0v225h783q102 0 156.5 8t89.5 39t35 84q-83 -34 -131 -34q-77 0 -149.5 36.5t-72.5 98.5q0 131 78 289t181 158q104 0 173 -158.5t69 -304.5q0 -253 -88.5 -347t-343.5 -94h-780zM1020 540q-6 56 -31 107t-52 51q-33 0 -58.5 -59.5t-25.5 -106.5q0 -28 62 -28
q46 0 105 36zM1122 1239l-153 -154l-154 154l154 153zM1122 -378l-153 -154l-154 154l154 153z" />
    <glyph glyph-name="uni06A3.medi" unicode="&#x6a3;" 
d="M1229 0q-97 0 -155.5 17.5t-107.5 77.5q-139 -95 -426 -95h-540v225h353q349 0 454 22q-103 128 -103 216t106 218t196 130q68 0 116.5 -76.5t48.5 -154.5q0 -212 -72 -332q20 -23 130 -23v-225zM969 326q40 59 50 99.5t10 108.5q0 36 -23.5 63t-58.5 27q-36 0 -65 -35
t-29 -72q0 -75 116 -191zM1116 1150l-153 -154l-154 154l154 153zM1116 -378l-153 -154l-154 154l154 153z" />
    <glyph glyph-name="uni06A3.fina" unicode="&#x6a3;" 
d="M1229 0q-93 0 -149.5 17t-107.5 80q-89 -62 -186 -96t-286 -34q-227 0 -318 27.5t-136.5 87t-45.5 150.5q0 78 58 214.5t120 136.5q43 0 43 -42q0 -21 -30 -94q-29 -74 -29 -111q0 -71 78 -107t285 -36q205 0 288 57q-109 119 -109 186q0 89 109.5 233t198.5 144
q69 0 117 -76.5t48 -153.5q0 -212 -72 -332q23 -26 124 -26v-225zM1036 536q0 36 -24 63t-59 27q-36 0 -64.5 -34.5t-28.5 -71.5q0 -76 115 -191q61 90 61 207zM1149 1110l-153 -154l-154 154l154 153zM1119 -377l-153 -154l-154 154l154 153z" />
    <glyph glyph-name="uni06A4" unicode="&#x6a4;" arabic-form="isolated" 
d="M1069 359q-58 -30 -134 -30q-81 0 -148.5 38.5t-67.5 101.5q0 132 76.5 287t178.5 155q104 0 173 -158t69 -304q0 -156 -37 -257t-126 -146.5t-356 -45.5h-191q-189 0 -292 25.5t-156 85.5t-53 155q0 82 57 216t121 134q38 0 38 -32q0 -21 -35 -98t-35 -115
q0 -70 70 -108t318 -38h184q209 0 270.5 19t75.5 115zM1028 546q-6 56 -31.5 107t-52.5 51q-33 0 -58 -59t-25 -107q0 -28 61 -28q56 0 106 36zM1081 1468l-156 -154l-153 154l153 153zM1221 1191l-154 -157l-141 141l-154 -154l-153 154l156 156l138 -140l154 153z" />
    <glyph glyph-name="uni06A5.init" unicode="&#x6a5;" 
d="M0 0v225h783q102 0 156.5 8t89.5 39t35 84q-83 -34 -131 -34q-77 0 -149.5 36.5t-72.5 98.5q0 131 78 289t181 158q104 0 173 -158.5t69 -304.5q0 -253 -88.5 -347t-343.5 -94h-780zM1020 540q-6 56 -31 107t-52 51q-33 0 -58.5 -59.5t-25.5 -106.5q0 -28 62 -28
q46 0 105 36zM1061 -258l-119 -136l-121 115l-106 -108l-119 122l115 133l118 -126l108 119zM946 -482l-116 -132l-118 132l118 116z" />
    <glyph glyph-name="uni06A5.medi" unicode="&#x6a5;" 
d="M1229 0q-97 0 -155.5 17.5t-107.5 77.5q-139 -95 -426 -95h-540v225h353q349 0 454 22q-103 128 -103 216t106 218t196 130q68 0 116.5 -76.5t48.5 -154.5q0 -212 -72 -332q20 -23 130 -23v-225zM969 326q40 59 50 99.5t10 108.5q0 36 -23.5 63t-58.5 27q-36 0 -65 -35
t-29 -72q0 -75 116 -191zM1061 -258l-119 -136l-121 115l-106 -108l-119 122l115 133l118 -126l108 119zM946 -482l-116 -132l-118 132l118 116z" />
    <glyph glyph-name="uni06A5.fina" unicode="&#x6a5;" 
d="M1229 0q-93 0 -149.5 17t-107.5 80q-89 -62 -186 -96t-286 -34q-227 0 -318 27.5t-136.5 87t-45.5 150.5q0 78 58 214.5t120 136.5q43 0 43 -42q0 -21 -30 -94q-29 -74 -29 -111q0 -71 78 -107t285 -36q205 0 288 57q-109 119 -109 186q0 89 109.5 233t198.5 144
q69 0 117 -76.5t48 -153.5q0 -212 -72 -332q23 -26 124 -26v-225zM1036 536q0 36 -24 63t-59 27q-36 0 -64.5 -34.5t-28.5 -71.5q0 -76 115 -191q61 90 61 207zM801 -258l-119 -136l-121 115l-106 -108l-119 122l115 133l118 -126l108 119zM686 -482l-116 -132l-118 132
l118 116z" />
    <glyph glyph-name="uni06A6" unicode="&#x6a6;" arabic-form="isolated" 
d="M1069 359q-58 -30 -134 -30q-81 0 -148.5 38.5t-67.5 101.5q0 132 76.5 287t178.5 155q104 0 173 -158t69 -304q0 -156 -37 -257t-126 -146.5t-356 -45.5h-191q-189 0 -292 25.5t-156 85.5t-53 155q0 82 57 216t121 134q38 0 38 -32q0 -21 -35 -98t-35 -115
q0 -70 70 -108t318 -38h184q209 0 270.5 19t75.5 115zM1028 546q-6 56 -31.5 107t-52.5 51q-33 0 -58 -59t-25 -107q0 -28 61 -28q56 0 106 36zM1194 1140l-110 -111l-101 102l-108 -110l-110 111l96 96l-105 106l110 109l100 -99l109 107l110 -109l-97 -97zM1070 1236
l-96 97l-95 -96l96 -95z" />
    <glyph glyph-name="uni06A7.fina" unicode="&#x6a7;" 
d="M1229 0h-55q-25 -164 -194.5 -260.5t-366.5 -96.5q-150 0 -256 45.5t-160 130t-54 208.5q0 75 55 218t100 143q37 0 37 -51q0 -42 -24 -123q-24 -82 -24 -121q0 -101 85 -157.5t227 -56.5h34q139 0 232.5 14.5t132 37.5t43 34t4.5 35q-343 0 -343 156q0 136 77 324
t176 188q98 0 154.5 -119t64.5 -324h55v-225zM1030 225q0 82 -23 159t-64 77q-35 0 -59.5 -71.5t-24.5 -126.5q0 -44 96 -44q37 0 75 6zM1106 1130l-153 -154l-154 154l154 153z" />
    <glyph glyph-name="uni06A8.fina" unicode="&#x6a8;" 
d="M1229 0h-55q-25 -164 -194.5 -260.5t-366.5 -96.5q-150 0 -256 45.5t-160 130t-54 208.5q0 75 55 218t100 143q37 0 37 -51q0 -42 -24 -123q-24 -82 -24 -121q0 -101 85 -157.5t227 -56.5h34q139 0 232.5 14.5t132 37.5t43 34t4.5 35q-343 0 -343 156q0 136 77 324
t176 188q98 0 154.5 -119t64.5 -324h55v-225zM1030 225q0 82 -23 159t-64 77q-35 0 -59.5 -71.5t-24.5 -126.5q0 -44 96 -44q37 0 75 6zM1013 1426l-156 -154l-153 154l153 153zM1153 1149l-154 -157l-141 141l-154 -154l-153 154l156 156l138 -140l154 153z" />
    <glyph glyph-name="uni06A9" unicode="&#x6a9;" arabic-form="isolated" 
d="M1216 1256l-57 -224q-411 -152 -411 -211q0 -18 25 -40q194 -168 249.5 -229.5t80.5 -135t25 -162.5q0 -123 -79 -195.5t-385 -72.5q-435 0 -549.5 71t-114.5 205q0 82 61.5 217t130.5 135q28 0 28 -35q0 -28 -37 -104q-36 -77 -36 -114q0 -70 67 -107.5t314 -37.5
q323 0 400 10t77 34q0 44 -36 85.5t-172 141.5q-252 187 -252 290q0 243 671 479z" />
    <glyph glyph-name="uni06AA.init" unicode="&#x6aa;" 
d="M1196 295q0 -192 -271 -258q-151 -37 -452 -37h-473v225h469q431 0 550 33q57 16 57 62q0 47 -131 47q-50 0 -198 -11l-46 -3q-271 -20 -403 -20q-135 0 -135 156q0 96 93.5 221.5t254.5 246.5l-17 -213q-102 -76 -113 -87q-75 -67 -75 -119q0 -20 30 -20h16q9 1 13 1
t348 21q164 10 273 10q91 0 146 -57q64 -67 64 -198z" />
    <glyph glyph-name="uni06AA.medi" unicode="&#x6aa;" 
d="M1229 0q-96 0 -168 59q-136 -59 -588 -59h-473v225h469q431 0 550 33q57 16 57 62q0 47 -131 47q-50 0 -199 -11l-45 -3q-271 -20 -403 -20q-135 0 -135 156q0 96 93.5 221.5t254.5 246.5l-17 -213q-102 -76 -113 -87q-75 -67 -75 -119q0 -20 30 -20h16q9 1 13 1t348 21
q164 10 273 10q91 0 146 -57q64 -67 64 -198q0 -36 -5 -65q20 -5 38 -5v-225z" />
    <glyph glyph-name="uni06AA.fina" unicode="&#x6aa;" 
d="M1229 0q-96 0 -168 59q-76 -36 -217 -51q-170 -18 -371 -18q-172 0 -346 10l-122 237l7 11q197 -32 457 -32q399 0 550 42q57 16 57 62q0 47 -131 47q-50 0 -198 -11l-46 -3q-271 -20 -403 -20q-135 0 -135 156q0 96 93.5 221.5t254.5 246.5l-17 -213q-102 -76 -113 -87
q-75 -67 -75 -119q0 -20 30 -20h16q9 1 13 1t348 21q164 10 273 10q91 0 146 -57q64 -67 64 -198q0 -36 -5 -65q20 -5 38 -5v-225z" />
    <glyph glyph-name="uni06AB.init" unicode="&#x6ab;" 
d="M765 225q131 0 131 37q0 67 -115 168l-181 150q-78 64 -112 112t-34 84q0 123 165.5 245.5t609.5 285.5l-100 -245q-183 -71 -327.5 -141.5t-144.5 -93.5q0 -28 114 -120q133 -107 202 -204.5t69 -217.5q0 -173 -61 -229t-221 -56h-760v225h765zM859 890q0 79 41.5 135.5
t111.5 56.5q62 0 99.5 -47t37.5 -115t-54 -119t-122 -51q-54 0 -84 42.5t-30 97.5zM923 920q0 -58 79 -58q68 0 68 35q0 33 -35.5 64.5t-69.5 31.5q-42 0 -42 -73z" />
    <glyph glyph-name="uni06AB.medi" unicode="&#x6ab;" 
d="M574 226q130 0 130 32q0 91 -220.5 256.5t-221.5 257.5q0 123 165.5 246t609.5 285l-100 -245q-472 -182 -472 -235q0 -17 10.5 -33.5t94.5 -91.5t218 -208q48 -67 153 -179q78 -60 125 -73t163 -13v-225q-227 0 -316 56.5t-128 143.5q-17 -89 -80.5 -144.5t-161.5 -55.5
h-543v225zM649 880q0 79 41.5 135.5t111.5 56.5q62 0 99.5 -47t37.5 -115t-54 -119t-122 -51q-54 0 -84 42.5t-30 97.5zM713 910q0 -58 79 -58q68 0 68 35q0 33 -35.5 64.5t-69.5 31.5q-42 0 -42 -73z" />
    <glyph glyph-name="uni06AC.init" unicode="&#x6ac;" 
d="M765 225q131 0 131 37q0 67 -115 168l-181 150q-78 64 -112 112t-34 84q0 123 165.5 245.5t609.5 285.5l-100 -245q-183 -71 -327.5 -141.5t-144.5 -93.5q0 -28 114 -120q133 -107 202 -204.5t69 -217.5q0 -173 -61 -229t-221 -56h-760v225h765zM998 1405l-153 -154
l-154 154l154 153z" />
    <glyph glyph-name="uni06AC.medi" unicode="&#x6ac;" 
d="M574 226q130 0 130 32q0 91 -220.5 256.5t-221.5 257.5q0 123 165.5 246t609.5 285l-100 -245q-472 -182 -472 -235q0 -17 10.5 -33.5t94.5 -91.5t218 -208q48 -67 153 -179q78 -60 125 -73t163 -13v-225q-227 0 -316 56.5t-128 143.5q-17 -89 -80.5 -144.5t-161.5 -55.5
h-543v225zM798 1405l-153 -154l-154 154l154 153z" />
    <glyph glyph-name="uni06AC.fina" unicode="&#x6ac;" 
d="M1102 1134q-49 -82 -49 -184q0 -99 11 -297q10 -198 10 -297q0 -52 40.5 -91t114.5 -40v-225q-149 0 -193 150q-40 -112 -136.5 -149t-349.5 -37q-337 0 -439.5 70.5t-102.5 201.5q0 55 31 131.5t63 76.5q34 0 34 -35q0 -9 -4 -34q-3 -25 -3 -36q0 -68 86.5 -104.5
t392.5 -36.5q332 0 332 100q0 176 -38 441t-95 342q31 68 119 216q70 -87 176 -163zM543 838q-9 -78 -39 -106q-12 13 -34 13q-18 0 -41 -12.5t-23 -30.5q0 -12 45 -17q84 -10 107.5 -33.5t23.5 -58.5q0 -42 -36 -105.5t-118 -64.5q-36 1 -93.5 12.5t-57.5 26.5q0 17 110 41
q111 24 111 37q0 3 -81 18t-81 70q0 52 49.5 143t101.5 91q40 0 56 -24zM978 1505l-153 -154l-154 154l154 153z" />
    <glyph glyph-name="uni06AD" unicode="&#x6ad;" arabic-form="isolated" 
d="M1146 1137q-49 -83 -49 -184q0 -99 10 -297q11 -198 11 -297q0 -132 -40.5 -217.5t-134 -131.5t-393.5 -46q-337 0 -439.5 70.5t-102.5 201.5q0 55 31 131.5t63 76.5q34 0 34 -35q0 -9 -4 -34q-3 -25 -3 -36q0 -68 86.5 -104.5t392.5 -36.5q376 0 376 103
q0 174 -38.5 440t-94.5 343q30 68 119 216q70 -87 176 -163zM584 888q-9 -78 -39 -106q-12 13 -34 13q-19 0 -41.5 -13t-22.5 -30q0 -12 45 -18q87 -10 109 -34.5t22 -56.5q0 -42 -36 -106t-118 -64q-35 0 -93 11.5t-58 27.5q0 17 110 41q111 24 111 37q0 3 -81 18t-81 70
q0 52 49.5 143t101.5 91q40 0 56 -24zM1036 1615l-78 -78l-78 78l78 78zM1107 1475l-78 -79l-71 71l-78 -78l-77 78l79 79l69 -71l78 78z" />
    <glyph glyph-name="uni06AE.init" unicode="&#x6ae;" 
d="M765 225q131 0 131 37q0 67 -115 168l-181 150q-78 64 -112 112t-34 84q0 123 165.5 245.5t609.5 285.5l-100 -245q-183 -71 -327.5 -141.5t-144.5 -93.5q0 -28 114 -120q133 -107 202 -204.5t69 -217.5q0 -173 -61 -229t-221 -56h-760v225h765zM801 -258l-119 -136
l-121 115l-106 -108l-119 122l115 133l118 -126l108 119zM686 -482l-116 -132l-118 132l118 116z" />
    <glyph glyph-name="uni06AE.medi" unicode="&#x6ae;" 
d="M574 226q130 0 130 32q0 91 -220.5 256.5t-221.5 257.5q0 123 165.5 246t609.5 285l-100 -245q-472 -182 -472 -235q0 -17 10.5 -33.5t94.5 -91.5t218 -208q48 -67 153 -179q78 -60 125 -73t163 -13v-225q-227 0 -316 56.5t-128 143.5q-17 -89 -80.5 -144.5t-161.5 -55.5
h-543v225zM501 -258l-119 -136l-121 115l-106 -108l-119 122l115 133l118 -126l108 119zM386 -482l-116 -132l-118 132l118 116z" />
    <glyph glyph-name="uni06AE.fina" unicode="&#x6ae;" 
d="M1102 1134q-49 -82 -49 -184q0 -99 11 -297q10 -198 10 -297q0 -52 40.5 -91t114.5 -40v-225q-149 0 -193 150q-40 -112 -136.5 -149t-349.5 -37q-337 0 -439.5 70.5t-102.5 201.5q0 55 31 131.5t63 76.5q34 0 34 -35q0 -9 -4 -34q-3 -25 -3 -36q0 -68 86.5 -104.5
t392.5 -36.5q332 0 332 100q0 176 -38 441t-95 342q31 68 119 216q70 -87 176 -163zM543 838q-9 -78 -39 -106q-12 13 -34 13q-18 0 -41 -12.5t-23 -30.5q0 -12 45 -17q84 -10 107.5 -33.5t23.5 -58.5q0 -42 -36 -105.5t-118 -64.5q-36 1 -93.5 12.5t-57.5 26.5q0 17 110 41
q111 24 111 37q0 3 -81 18t-81 70q0 52 49.5 143t101.5 91q40 0 56 -24zM781 -258l-119 -136l-121 115l-106 -108l-119 122l115 133l118 -126l108 119zM666 -482l-116 -132l-118 132l118 116z" />
    <glyph glyph-name="uni06AF" unicode="&#x6af;" arabic-form="isolated" 
d="M1227 1349l-23 -126q-244 -81 -653 -303l34 142q330 171 642 287zM1229 1140l-67 -197q-500 -175 -500 -207q0 -12 29 -26q235 -111 301 -200.5t66 -257.5q0 -122 -79 -195t-385 -72q-206 -1 -340 14.5t-192.5 78.5t-58.5 173q0 82 61.5 217t130.5 135q28 0 28 -35
q0 -28 -37 -105q-36 -77 -36 -113q0 -54 27 -86t86 -41t195 -9q329 0 403.5 11t73.5 33q1 45 -37 88.5t-172 119.5q-142 81 -177.5 123t-36.5 85q0 78 43.5 133.5t223 143t450.5 189.5z" />
    <glyph glyph-name="uni06B0.init" unicode="&#x6b0;" 
d="M1228 1358l-48 -132q-241 -81 -694 -326l33 142q359 185 709 316zM1224 1150l-87 -207q-501 -176 -501 -210q0 -7 61 -38q123 -61 197 -114.5t106.5 -134.5t32.5 -194q0 -82 -28.5 -136.5t-93 -84.5t-268.5 -30l-643 -1v225h470q217 0 320.5 4t113.5 10t10 17
q0 39 -25 76t-55 58.5t-236 140.5q-111 71 -111 143q0 79 46 135.5t235 148t456 192.5zM849 770q0 79 41.5 135.5t111.5 56.5q62 0 99.5 -47t37.5 -115t-54 -119t-122 -51q-54 0 -84 42.5t-30 97.5zM913 800q0 -58 79 -58q68 0 68 35q0 33 -35.5 64.5t-69.5 31.5
q-42 0 -42 -73z" />
    <glyph glyph-name="uni06B0.medi" unicode="&#x6b0;" 
d="M1031 1362l-48 -132q-242 -80 -694 -326l33 142q358 186 709 316zM729 538v2q32 -30 105 -117q75 -91 128 -127.5t91 -53.5t176 -17v-225q-226 0 -315.5 56.5t-128.5 143.5q-17 -88 -80 -144t-162 -56h-543v225l574 1q130 0 130 32q0 43 -43.5 94.5t-189.5 131.5
q-135 74 -166.5 113.5t-31.5 77.5q0 79 45.5 135.5t236.5 149t455 191.5l-87 -207q-501 -175 -501 -210q0 -7 61 -38q187 -94 246 -158zM639 770q0 79 41.5 135.5t111.5 56.5q62 0 99.5 -47t37.5 -115t-54 -119t-122 -51q-54 0 -84 42.5t-30 97.5zM703 800q0 -58 79 -58
q68 0 68 35q0 33 -35.5 64.5t-69.5 31.5q-42 0 -42 -73z" />
    <glyph glyph-name="uni06B0.fina" unicode="&#x6b0;" 
d="M1225 1357l-48 -132q-242 -81 -694 -326l33 142q358 185 709 316zM949 540q103 -95 209 -261q30 -49 71 -54v-225q-128 0 -224 200q-13 -76 -60 -125t-124 -69.5t-290 -20.5q-329 0 -430 65.5t-101 211.5q0 82 61.5 217t130.5 135q28 0 28 -35q0 -28 -37 -104
q-36 -77 -36 -114q0 -70 67 -107.5t314 -37.5q269 0 333 7.5t64 38.5q0 41 -43 91t-191 131q-132 72 -165 112.5t-33 78.5q0 79 45.5 135.5t241 151t448.5 189.5l-85 -207q-501 -175 -501 -210q0 -7 61 -38q188 -94 247 -158zM849 770q0 79 41.5 135.5t111.5 56.5
q62 0 99.5 -47t37.5 -115t-54 -119t-122 -51q-54 0 -84 42.5t-30 97.5zM913 800q0 -58 79 -58q68 0 68 35q0 33 -35.5 64.5t-69.5 31.5q-42 0 -42 -73z" />
    <glyph glyph-name="uni06B1" unicode="&#x6b1;" arabic-form="isolated" 
d="M1227 1349l-23 -126q-244 -81 -653 -303l34 142q330 171 642 287zM1229 1140l-67 -197q-500 -175 -500 -207q0 -12 29 -26q235 -111 301 -200.5t66 -257.5q0 -122 -79 -195t-385 -72q-206 -1 -340 14.5t-192.5 78.5t-58.5 173q0 82 61.5 217t130.5 135q28 0 28 -35
q0 -28 -37 -105q-36 -77 -36 -113q0 -54 27 -86t86 -41t195 -9q329 0 403.5 11t73.5 33q1 45 -37 88.5t-172 119.5q-142 81 -177.5 123t-36.5 85q0 78 43.5 133.5t223 143t450.5 189.5zM1091 1430l-155 -157l-141 136l-153 -148l-154 154l156 156l139 -141l154 154z" />
    <glyph glyph-name="uni06B2.init" unicode="&#x6b2;" 
d="M1228 1358l-48 -132q-241 -81 -694 -326l33 142q359 185 709 316zM1224 1150l-87 -207q-501 -176 -501 -210q0 -7 61 -38q123 -61 197 -114.5t106.5 -134.5t32.5 -194q0 -82 -28.5 -136.5t-93 -84.5t-268.5 -30l-643 -1v225h470q217 0 320.5 4t113.5 10t10 17
q0 39 -25 76t-55 58.5t-236 140.5q-111 71 -111 143q0 79 46 135.5t235 148t456 192.5zM991 -384l-155 -157l-141 136l-153 -148l-154 154l156 156l139 -141l154 154z" />
    <glyph glyph-name="uni06B2.medi" unicode="&#x6b2;" 
d="M1031 1362l-48 -132q-242 -80 -694 -326l33 142q358 186 709 316zM729 538v2q32 -30 105 -117q75 -91 128 -127.5t91 -53.5t176 -17v-225q-226 0 -315.5 56.5t-128.5 143.5q-17 -88 -80 -144t-162 -56h-543v225l574 1q130 0 130 32q0 43 -43.5 94.5t-189.5 131.5
q-135 74 -166.5 113.5t-31.5 77.5q0 79 45.5 135.5t236.5 149t455 191.5l-87 -207q-501 -175 -501 -210q0 -7 61 -38q187 -94 246 -158zM731 -384l-155 -157l-141 136l-153 -148l-154 154l156 156l139 -141l154 154z" />
    <glyph glyph-name="uni06B2.fina" unicode="&#x6b2;" 
d="M1225 1357l-48 -132q-242 -81 -694 -326l33 142q358 185 709 316zM949 540q103 -95 209 -261q30 -49 71 -54v-225q-128 0 -224 200q-13 -76 -60 -125t-124 -69.5t-290 -20.5q-329 0 -430 65.5t-101 211.5q0 82 61.5 217t130.5 135q28 0 28 -35q0 -28 -37 -104
q-36 -77 -36 -114q0 -70 67 -107.5t314 -37.5q269 0 333 7.5t64 38.5q0 41 -43 91t-191 131q-132 72 -165 112.5t-33 78.5q0 79 45.5 135.5t241 151t448.5 189.5l-85 -207q-501 -175 -501 -210q0 -7 61 -38q188 -94 247 -158zM791 -384l-155 -157l-141 136l-153 -148
l-154 154l156 156l139 -141l154 154z" />
    <glyph glyph-name="uni06B3" unicode="&#x6b3;" arabic-form="isolated" 
d="M1227 1349l-23 -126q-244 -81 -653 -303l34 142q330 171 642 287zM1229 1140l-67 -197q-500 -175 -500 -207q0 -12 29 -26q235 -111 301 -200.5t66 -257.5q0 -122 -79 -195t-385 -72q-206 -1 -340 14.5t-192.5 78.5t-58.5 173q0 82 61.5 217t130.5 135q28 0 28 -35
q0 -28 -37 -105q-36 -77 -36 -113q0 -54 27 -86t86 -41t195 -9q329 0 403.5 11t73.5 33q1 45 -37 88.5t-172 119.5q-142 81 -177.5 123t-36.5 85q0 78 43.5 133.5t223 143t450.5 189.5zM688 -504l-111 -110l-109 110l99 100l-107 109l109 110l111 -110l-102 -101z" />
    <glyph glyph-name="uni06B4.init" unicode="&#x6b4;" 
d="M1228 1358l-48 -132q-241 -81 -694 -326l33 142q359 185 709 316zM1224 1150l-87 -207q-501 -176 -501 -210q0 -7 61 -38q123 -61 197 -114.5t106.5 -134.5t32.5 -194q0 -82 -28.5 -136.5t-93 -84.5t-268.5 -30l-643 -1v225h470q217 0 320.5 4t113.5 10t10 17
q0 39 -25 76t-55 58.5t-236 140.5q-111 71 -111 143q0 79 46 135.5t235 148t456 192.5zM896 1515l-78 -78l-78 78l78 78zM967 1375l-78 -79l-71 71l-78 -78l-77 78l79 79l69 -71l78 78z" />
    <glyph glyph-name="uni06B4.medi" unicode="&#x6b4;" 
d="M1031 1362l-48 -132q-242 -80 -694 -326l33 142q358 186 709 316zM729 538v2q32 -30 105 -117q75 -91 128 -127.5t91 -53.5t176 -17v-225q-226 0 -315.5 56.5t-128.5 143.5q-17 -88 -80 -144t-162 -56h-543v225l574 1q130 0 130 32q0 43 -43.5 94.5t-189.5 131.5
q-135 74 -166.5 113.5t-31.5 77.5q0 79 45.5 135.5t236.5 149t455 191.5l-87 -207q-501 -175 -501 -210q0 -7 61 -38q187 -94 246 -158zM736 1515l-78 -78l-78 78l78 78zM807 1375l-78 -79l-71 71l-78 -78l-77 78l79 79l69 -71l78 78z" />
    <glyph glyph-name="uni06B4.fina" unicode="&#x6b4;" 
d="M1225 1357l-48 -132q-242 -81 -694 -326l33 142q358 185 709 316zM949 540q103 -95 209 -261q30 -49 71 -54v-225q-128 0 -224 200q-13 -76 -60 -125t-124 -69.5t-290 -20.5q-329 0 -430 65.5t-101 211.5q0 82 61.5 217t130.5 135q28 0 28 -35q0 -28 -37 -104
q-36 -77 -36 -114q0 -70 67 -107.5t314 -37.5q269 0 333 7.5t64 38.5q0 41 -43 91t-191 131q-132 72 -165 112.5t-33 78.5q0 79 45.5 135.5t241 151t448.5 189.5l-85 -207q-501 -175 -501 -210q0 -7 61 -38q188 -94 247 -158zM896 1515l-78 -78l-78 78l78 78zM967 1375
l-78 -79l-71 71l-78 -78l-77 78l79 79l69 -71l78 78z" />
    <glyph glyph-name="uni06B5.init" unicode="&#x6b5;" 
d="M1202 1102l-79 -125q67 -507 67 -748q0 -190 -299 -229h-891v225l954 1q77 -2 77 57q0 223 -34 466t-91 348q60 104 154 223q69 -145 142 -218zM1197 1639q-1 -3 -69 -98l-107 -149l-108 149q-67 93 -68 98q-4 19 38 29t52 -2q3 -3 48 -71q11 -17 38 -59l38 59
q20 32 47 71q10 12 53 2q42 -10 38 -29z" />
    <glyph glyph-name="uni06B5.medi" unicode="&#x6b5;" 
d="M1229 0h-113q-147 0 -224.5 48.5t-120.5 153.5q-35 -94 -108 -148t-164 -54h-499v225h502q46 0 75 22t41.5 64.5t12.5 160.5q0 503 -74 610q43 64 160 214q92 -146 92 -390q0 -36 -2 -110t-2 -111q1 -231 38.5 -345.5t143.5 -114.5h242v-225zM837 1639q-1 -3 -69 -98
l-107 -149l-108 149q-67 93 -68 98q-4 19 38 29t52 -2q3 -3 48 -71q11 -17 38 -59l38 59q20 32 47 71q10 12 53 2q42 -10 38 -29z" />
    <glyph glyph-name="uni06B5.fina" unicode="&#x6b5;" 
d="M1023 1114q-78 -113 -78 -159q0 -160 16.5 -365.5t25 -258t69 -79.5t173.5 -27v-225q-169 0 -239 158q4 -35 4 -68q0 -411 -593 -411q-158 0 -260.5 73.5t-102.5 208.5q0 72 52.5 214.5t103.5 142.5q40 0 40 -40q0 -26 -27 -102q-26 -75 -26 -109q0 -65 58.5 -108
t139.5 -43q484 0 484 135q0 192 -52.5 576.5t-105.5 424.5q50 105 125 238q103 -114 193 -176zM997 1639q-1 -3 -69 -98l-107 -149l-108 149q-67 93 -68 98q-4 19 38 29t52 -2q3 -3 48 -71q11 -17 38 -59l38 59q20 32 47 71q10 12 53 2q42 -10 38 -29z" />
    <glyph glyph-name="uni06B6.init" unicode="&#x6b6;" 
d="M1202 1102l-79 -125q67 -507 67 -748q0 -190 -299 -229h-891v225l954 1q77 -2 77 57q0 223 -34 466t-91 348q60 104 154 223q69 -145 142 -218zM1158 1535l-153 -154l-154 154l154 153z" />
    <glyph glyph-name="uni06B6.medi" unicode="&#x6b6;" 
d="M1229 0h-113q-147 0 -224.5 48.5t-120.5 153.5q-35 -94 -108 -148t-164 -54h-499v225h502q46 0 75 22t41.5 64.5t12.5 160.5q0 503 -74 610q43 64 160 214q92 -146 92 -390q0 -36 -2 -110t-2 -111q1 -231 38.5 -345.5t143.5 -114.5h242v-225zM798 1535l-153 -154
l-154 154l154 153z" />
    <glyph glyph-name="uni06B6.fina" unicode="&#x6b6;" 
d="M1023 1114q-78 -113 -78 -159q0 -160 16.5 -365.5t25 -258t69 -79.5t173.5 -27v-225q-169 0 -239 158q4 -35 4 -68q0 -411 -593 -411q-158 0 -260.5 73.5t-102.5 208.5q0 72 52.5 214.5t103.5 142.5q40 0 40 -40q0 -26 -27 -102q-26 -75 -26 -109q0 -65 58.5 -108
t139.5 -43q484 0 484 135q0 192 -52.5 576.5t-105.5 424.5q50 105 125 238q103 -114 193 -176zM998 1535l-153 -154l-154 154l154 153z" />
    <glyph glyph-name="uni06B7.init" unicode="&#x6b7;" 
d="M1202 1102l-79 -125q67 -507 67 -748q0 -190 -299 -229h-891v225l954 1q77 -2 77 57q0 223 -34 466t-91 348q60 104 154 223q69 -145 142 -218zM1096 1615l-78 -78l-78 78l78 78zM1167 1475l-78 -79l-71 71l-78 -78l-77 78l79 79l69 -71l78 78z" />
    <glyph glyph-name="uni06B7.medi" unicode="&#x6b7;" 
d="M1229 0h-113q-147 0 -224.5 48.5t-120.5 153.5q-35 -94 -108 -148t-164 -54h-499v225h502q46 0 75 22t41.5 64.5t12.5 160.5q0 503 -74 610q43 64 160 214q92 -146 92 -390q0 -36 -2 -110t-2 -111q1 -231 38.5 -345.5t143.5 -114.5h242v-225zM736 1615l-78 -78l-78 78
l78 78zM807 1475l-78 -79l-71 71l-78 -78l-77 78l79 79l69 -71l78 78z" />
    <glyph glyph-name="uni06B7.fina" unicode="&#x6b7;" 
d="M1023 1114q-78 -113 -78 -159q0 -160 16.5 -365.5t25 -258t69 -79.5t173.5 -27v-225q-169 0 -239 158q4 -35 4 -68q0 -411 -593 -411q-158 0 -260.5 73.5t-102.5 208.5q0 72 52.5 214.5t103.5 142.5q40 0 40 -40q0 -26 -27 -102q-26 -75 -26 -109q0 -65 58.5 -108
t139.5 -43q484 0 484 135q0 192 -52.5 576.5t-105.5 424.5q50 105 125 238q103 -114 193 -176zM896 1615l-78 -78l-78 78l78 78zM967 1475l-78 -79l-71 71l-78 -78l-77 78l79 79l69 -71l78 78z" />
    <glyph glyph-name="uni06B8.init" unicode="&#x6b8;" 
d="M1202 1102l-79 -125q67 -507 67 -748q0 -190 -299 -229h-891v225l954 1q77 -2 77 57q0 223 -34 466t-91 348q60 104 154 223q69 -145 142 -218zM801 -258l-119 -136l-121 115l-106 -108l-119 122l115 133l118 -126l108 119zM686 -482l-116 -132l-118 132l118 116z" />
    <glyph glyph-name="uni06B8.medi" unicode="&#x6b8;" 
d="M1229 0h-113q-147 0 -224.5 48.5t-120.5 153.5q-35 -94 -108 -148t-164 -54h-499v225h502q46 0 75 22t41.5 64.5t12.5 160.5q0 503 -74 610q43 64 160 214q92 -146 92 -390q0 -36 -2 -110t-2 -111q1 -231 38.5 -345.5t143.5 -114.5h242v-225zM941 -258l-119 -136
l-121 115l-106 -108l-119 122l115 133l118 -126l108 119zM826 -482l-116 -132l-118 132l118 116z" />
    <glyph glyph-name="uni06B8.fina" unicode="&#x6b8;" 
d="M1023 1114q-78 -113 -78 -159q0 -160 16.5 -365.5t25 -258t69 -79.5t173.5 -27v-225q-169 0 -239 158q4 -35 4 -68q0 -411 -593 -411q-158 0 -260.5 73.5t-102.5 208.5q0 72 52.5 214.5t103.5 142.5q40 0 40 -40q0 -26 -27 -102q-26 -75 -26 -109q0 -65 58.5 -108
t139.5 -43q484 0 484 135q0 192 -52.5 576.5t-105.5 424.5q50 105 125 238q103 -114 193 -176zM457 -439l-78 -60l-80 61l80 59l70 -49l79 57l80 -59l-80 -61zM533 -541l-80 -60l-80 60l80 59z" />
    <glyph glyph-name="uni06B9.init" unicode="&#x6b9;" 
d="M0 0v225h860q31 0 78.5 14.5t47.5 33.5q0 158 -113 282l117 289q103 -154 139.5 -252t36.5 -215q0 -108 -78 -242.5t-185 -134.5h-903zM1086 1173l-153 -154l-154 154l154 153zM1122 -378l-153 -154l-154 154l154 153z" />
    <glyph glyph-name="uni06B9.medi" unicode="&#x6b9;" 
d="M1229 0h-81q-186 0 -256 38.5t-126 152.5q-112 -191 -223 -191h-543v225h532q120 0 120 104q0 98 -66 255l153 269q84 -265 103 -452q6 -62 19 -87.5t36 -43.5t55 -29t56.5 -13.5t220.5 -2.5v-225zM815 1140l-153 -154l-154 154l154 153zM858 -378l-153 -154l-154 154
l154 153z" />
    <glyph glyph-name="uni06B9.fina" unicode="&#x6b9;" 
d="M1229 225v-225q-58 0 -95 32.5t-63 98.5q-42 -432 -558 -432q-179 0 -303 80.5t-124 250.5q0 130 80.5 344t172.5 214q38 0 38 -41q0 -16 -58 -169q-59 -152 -59 -268q0 -82 84.5 -124.5t179.5 -42.5q155 0 279.5 27t124.5 125q0 155 -118 345l111 354q45 -70 83 -186.5
t48 -193.5q13 -149 177 -189zM738 1090l-153 -154l-154 154l154 153zM698 -460l-153 -154l-154 154l154 153z" />
    <glyph glyph-name="uni06BA" unicode="&#x6ba;" arabic-form="isolated" 
d="M852 397l113 352q71 -133 113 -293t42 -263q0 -282 -146.5 -435t-418.5 -153q-126 0 -223.5 51t-150.5 134.5t-53 195.5q0 131 80 345t173 214q38 0 38 -41q0 -17 -59 -170q-58 -152 -58 -267q0 -83 84 -150.5t180 -67.5q157 0 280.5 52.5t123.5 150.5q0 154 -118 345z
" />
    <glyph glyph-name="uni06BB" unicode="&#x6bb;" arabic-form="isolated" 
d="M852 397l113 352q71 -133 113 -293t42 -263q0 -282 -146.5 -435t-418.5 -153q-126 0 -223.5 51t-150.5 134.5t-53 195.5q0 131 80 345t173 214q38 0 38 -41q0 -17 -59 -170q-58 -152 -58 -267q0 -83 84 -150.5t180 -67.5q157 0 280.5 52.5t123.5 150.5q0 154 -118 345z
M990 1130q0 -188 -258 -188h-231q-83 0 -109 114h112q48 45 48 121q0 254 -35 312l64 104l88 -90q-43 -50 -40 -171l2 -70q1 -28 -16 -125q139 170 244 170q131 0 131 -177zM910 1108q0 35 -22 62t-56 27q-38 0 -89 -39q-20 -15 -120 -102h199q88 0 88 52z" />
    <glyph glyph-name="uni06BC.init" unicode="&#x6bc;" 
d="M0 0v225h860q31 0 78.5 14.5t47.5 33.5q0 158 -113 282l117 289q103 -154 139.5 -252t36.5 -215q0 -108 -78 -242.5t-185 -134.5h-903zM1086 1173l-153 -154l-154 154l154 153zM789 -103q0 79 41.5 135.5t111.5 56.5q62 0 99.5 -47t37.5 -115t-54 -119t-122 -51
q-54 0 -84 42.5t-30 97.5zM853 -73q0 -58 79 -58q68 0 68 35q0 33 -35.5 64.5t-69.5 31.5q-42 0 -42 -73z" />
    <glyph glyph-name="uni06BC.medi" unicode="&#x6bc;" 
d="M1229 0h-81q-186 0 -256 38.5t-126 152.5q-112 -191 -223 -191h-543v225h532q120 0 120 104q0 98 -66 255l153 269q84 -265 103 -452q6 -62 19 -87.5t36 -43.5t55 -29t56.5 -13.5t220.5 -2.5v-225zM815 1140l-153 -154l-154 154l154 153zM469 -103q0 79 41.5 135.5
t111.5 56.5q62 0 99.5 -47t37.5 -115t-54 -119t-122 -51q-54 0 -84 42.5t-30 97.5zM533 -73q0 -58 79 -58q68 0 68 35q0 33 -35.5 64.5t-69.5 31.5q-42 0 -42 -73z" />
    <glyph glyph-name="uni06BC.fina" unicode="&#x6bc;" 
d="M1229 225v-225q-58 0 -95 32.5t-63 98.5q-42 -432 -558 -432q-179 0 -303 80.5t-124 250.5q0 130 80.5 344t172.5 214q38 0 38 -41q0 -16 -58 -169q-59 -152 -59 -268q0 -82 84.5 -124.5t179.5 -42.5q155 0 279.5 27t124.5 125q0 155 -118 345l111 354q45 -70 83 -186.5
t48 -193.5q13 -149 177 -189zM798 1075l-153 -154l-154 154l154 153zM469 -404q0 79 41.5 135.5t111.5 56.5q62 0 99.5 -47t37.5 -115t-54 -119t-122 -51q-54 0 -84 42.5t-30 97.5zM533 -374q0 -58 79 -58q68 0 68 35q0 33 -35.5 64.5t-69.5 31.5q-42 0 -42 -73z" />
    <glyph glyph-name="uni06BD.fina" unicode="&#x6bd;" 
d="M1229 225v-225q-58 0 -95 21t-63 70q-42 -522 -558 -522q-179 0 -303 105.5t-124 275.5q0 130 80.5 344t172.5 214q38 0 38 -41q0 -16 -58 -169q-59 -152 -59 -268q0 -82 84.5 -149.5t179.5 -67.5q155 0 279.5 52t124.5 150q0 155 -118 345l111 354q45 -70 83 -186.5
t48 -193.5q13 -109 177 -109zM773 1426l-156 -154l-153 154l153 153zM913 1149l-154 -157l-141 141l-154 -154l-153 154l156 156l138 -140l154 153z" />
    <glyph glyph-name="uni06BE" unicode="&#x647;" arabic-form="initial" 
d="M807 -16q-86 49 -234 122q-124 -106 -320 -106h-253v225q245 0 334 27q0 141 138 304q-57 24 -99 24q12 45 35.5 102t55.5 71.5t84 14.5q161 0 279 -161.5t118 -328.5q0 -106 -138 -294zM481 314q27 -7 54 -15q106 114 106 184q0 27 -5 36t-31 9q-30 0 -87 -72.5
t-57 -98.5q0 -33 20 -43zM719 467q0 -118 -63 -212q83 -25 151 -58q8 21 8 69q0 113 -96 201z" />
    <glyph glyph-name="uni06BF.init" unicode="&#x6bf;" 
d="M1229 500l-81 -224q-223 0 -295 -18t-212 -110q-226 -148 -446 -148h-195v225h295q127 0 362 121q100 51 166 67q-177 141 -304 141q-50 0 -113 -66q-26 -27 -40 -27q-41 0 -41 72q0 89 81.5 156.5t167.5 67.5q52 0 103 -22t184 -116q105 -74 187.5 -96.5t180.5 -22.5z
M825 -258l-119 -136l-121 115l-106 -108l-119 122l115 133l118 -126l108 119zM710 -482l-116 -132l-118 132l118 116zM1060 1075l-153 -154l-154 154l154 153z" />
    <glyph glyph-name="uni06BF.medi" unicode="&#x6bf;" 
d="M1229 0h-342q-194 0 -194 235q0 31 12 75q-45 -23 -96 -78q-219 -232 -362 -232h-247v225q56 -2 95 -2q221 0 389 106q108 68 190 100q-69 41 -166 79.5t-133 38.5q-67 0 -114 -61q-21 -28 -34 -28q-48 0 -48 75q0 92 83.5 161.5t168.5 69.5q89 0 192 -58
q163 -92 249 -123.5t242 -31.5l-106 -219q-68 16 -161 16q-5 -23 -5 -51q0 -40 30.5 -56t111.5 -16h245v-225zM720 -258l-119 -136l-121 115l-106 -108l-119 122l115 133l118 -126l108 119zM605 -482l-116 -132l-118 132l118 116zM798 1130l-153 -154l-154 154l154 153z" />
    <glyph glyph-name="uni06BF.fina" unicode="&#x6bf;" 
d="M1229 0h-353q-183 0 -183 208q0 34 5 83q-111 -42 -229 -156q-143 -139 -143 -266q0 -130 102 -212q96 -78 238 -78q233 0 448 152q11 8 36 8q16 0 16 -15q1 -50 -75 -132q-85 -92 -204 -147q-129 -59 -243 -59q-209 0 -349 140q-135 134 -135 319q0 272 495 584
q-202 113 -276 113q-44 0 -97.5 -41.5t-58.5 -41.5q-35 0 -35 77q0 81 77 155t158 74q56 0 111 -20.5t185 -93.5q179 -100 393 -100l-106 -219q-78 16 -158 16q-7 -17 -7 -45q0 -78 135 -78h253v-225zM821 -48l-119 -136l-121 115l-106 -108l-119 122l115 133l118 -126
l108 119zM706 -272l-116 -132l-118 132l118 116zM885 1064l-153 -154l-154 154l154 153z" />
    <glyph glyph-name="uni06C0" unicode="&#x6c0;" arabic-form="isolated" 
d="M561 574q-29 6 -38 6q-14 0 -29 -4q41 217 158 217q130 0 224.5 -118.5t94.5 -253.5q0 -179 -75.5 -300t-216.5 -121q-104 0 -161 69t-57 181q0 125 100 324zM666 543q-24 -19 -52 -75.5t-28 -80.5q0 -86 35.5 -137.5t96.5 -51.5q43 0 82.5 28t39.5 80q0 88 -35 143
t-139 94zM523 1171l13 72q51 34 74 64q-95 30 -95 101q0 66 44.5 128t105.5 62q101 0 101 -89q0 -24 -20 -65q-81 59 -127 59q-32 0 -32 -29q0 -36 41.5 -63t86.5 -27q50 0 116 32v-114z" />
    <glyph glyph-name="uni06C1" unicode="&#x6c1;" arabic-form="final" 
d="M1229 0h-180q-84 0 -185.5 88.5t-118.5 88.5q-55 0 -126 -196q-82 -226 -112 -270q-11 -15 -154 -33q57 159 176 479q95 243 224 243q40 0 151 -87.5t183 -87.5h142v-225z" />
    <glyph glyph-name="uni06C4.fina" unicode="&#x6c4;" 
d="M1229 225v-225h-210q-43 -177 -152.5 -288.5t-256.5 -111.5q-61 0 -234 58t-173 99q0 34 59 34q18 0 68 -10q50 -11 109 -11q113 0 270.5 75t170.5 162q-57 -6 -65 -6q-146 0 -199.5 46t-53.5 138q0 132 76 318.5t178 186.5q94 0 151.5 -127t68.5 -338h193zM876 231
q0 79 -19.5 164t-52.5 85q-25 0 -53.5 -65.5t-28.5 -118.5q0 -47 16.5 -59t80.5 -12q33 0 57 6zM369 -190q0 79 41.5 135.5t111.5 56.5q62 0 99.5 -47t37.5 -115t-54 -119t-122 -51q-54 0 -84 42.5t-30 97.5zM433 -160q0 -58 79 -58q68 0 68 35q0 33 -35.5 64.5t-69.5 31.5
q-42 0 -42 -73z" />
    <glyph glyph-name="uni06C5" unicode="&#x6c5;" arabic-form="isolated" 
d="M1034 145q0 -199 -112 -362q-125 -183 -316 -183q-66 0 -228 56q-179 61 -179 105q0 30 59 30q27 0 85 -10.5t92 -10.5q119 0 272 75l11 5q-39 -10 -77 -10q-23 0 -84.5 30t-91.5 30q-33 0 -69.5 -30t-38.5 -30q-4 2 -4 12q0 59 44.5 99t104.5 40q24 0 97.5 -28.5
t116.5 -28.5q76 0 143 28q14 22 18 49q-29 -5 -65 -5q-124 0 -178 29q-76 39 -76 150q0 128 67 292q81 198 188 198q128 0 185 -216q36 -137 36 -314zM872 215q0 66 -14 140q-20 109 -58 109q-31 0 -59 -78q-23 -66 -23 -107q0 -50 24 -62q15 -8 73 -8q36 0 57 6z" />
    <glyph glyph-name="uni06C6" unicode="&#x6c6;" arabic-form="isolated" 
d="M877 11q-29 -5 -65 -5q-154 0 -204 44.5t-50 134.5q0 129 76 309.5t179 180.5q105 0 163 -149t58 -381q0 -202 -121 -373.5t-307 -171.5q-64 0 -235.5 58.5t-171.5 102.5q0 20 14 25t45 5q23 0 69 -10q45 -11 108 -11q116 0 271.5 74.5t170.5 166.5zM872 215
q0 79 -19.5 164t-52.5 85q-28 0 -55 -69t-27 -116t16 -58.5t81 -11.5q36 0 57 6zM937 1159q-1 -3 -69 -98l-107 -149l-108 149q-67 93 -68 98q-4 19 38 29t52 -2q3 -3 48 -71q11 -17 38 -59l38 59q20 32 47 71q10 12 53 2q42 -10 38 -29z" />
    <glyph glyph-name="uni06C7" unicode="&#x6c7;" arabic-form="isolated" 
d="M877 11q-29 -5 -65 -5q-154 0 -204 44.5t-50 134.5q0 129 76 309.5t179 180.5q105 0 163 -149t58 -381q0 -202 -121 -373.5t-307 -171.5q-64 0 -235.5 58.5t-171.5 102.5q0 20 14 25t45 5q23 0 69 -10q45 -11 108 -11q116 0 271.5 74.5t170.5 166.5zM872 215
q0 79 -19.5 164t-52.5 85q-28 0 -55 -69t-27 -116t16 -58.5t81 -11.5q36 0 57 6zM801 1130q-128 -144 -204 -144q-18 0 -43 12t-25 27q0 8 16 15q123 49 200 120q-92 67 -92 115q0 49 47 111.5t108 62.5q44 0 71 -32.5t27 -82.5q0 -52 -36 -112q50 -19 50 -65v-59
q-48 0 -119 32zM817 1243q15 18 15 54q0 71 -69 71q-31 0 -31 -48q0 -41 85 -77z" />
    <glyph glyph-name="uni06C8" unicode="&#x6c8;" arabic-form="isolated" 
d="M877 11q-29 -5 -65 -5q-154 0 -204 44.5t-50 134.5q0 129 76 309.5t179 180.5q105 0 163 -149t58 -381q0 -202 -121 -373.5t-307 -171.5q-64 0 -235.5 58.5t-171.5 102.5q0 20 14 25t45 5q23 0 69 -10q45 -11 108 -11q116 0 271.5 74.5t170.5 166.5zM872 215
q0 79 -19.5 164t-52.5 85q-28 0 -55 -69t-27 -116t16 -58.5t81 -11.5q36 0 57 6zM731 974q0 71 -12 231q-15 191 -15 301l91 145l-3 -141q0 -94 4 -146q5 -81 5 -146q0 -45 -23 -137.5t-47 -106.5z" />
    <glyph glyph-name="uni06C9" unicode="&#x6c9;" arabic-form="isolated" 
d="M877 11q-29 -5 -65 -5q-154 0 -204 44.5t-50 134.5q0 129 76 309.5t179 180.5q105 0 163 -149t58 -381q0 -202 -121 -373.5t-307 -171.5q-64 0 -235.5 58.5t-171.5 102.5q0 20 14 25t45 5q23 0 69 -10q45 -11 108 -11q116 0 271.5 74.5t170.5 166.5zM872 215
q0 79 -19.5 164t-52.5 85q-28 0 -55 -69t-27 -116t16 -58.5t81 -11.5q36 0 57 6zM957 946q4 -19 -38 -29q-43 -10 -51 3q-13 14 -49 70q-11 17 -38 59q-13 -20 -38 -59q-21 -32 -48 -71q-10 -12 -52 -2t-38 29q1 5 68 98l108 149l107 -149q34 -46 69 -98z" />
    <glyph glyph-name="uni06CA.fina" unicode="&#x6ca;" 
d="M1229 225v-225h-210q-43 -177 -152.5 -288.5t-256.5 -111.5q-61 0 -234 58t-173 99q0 34 59 34q18 0 68 -10q50 -11 109 -11q113 0 270.5 75t170.5 162q-57 -6 -65 -6q-146 0 -199.5 46t-53.5 138q0 132 76 318.5t178 186.5q94 0 151.5 -127t68.5 -338h193zM876 231
q0 79 -19.5 164t-52.5 85q-25 0 -53.5 -65.5t-28.5 -118.5q0 -47 16.5 -59t80.5 -12q33 0 57 6zM1071 1030l-155 -157l-141 136l-153 -148l-154 154l156 156l139 -141l154 154z" />
    <glyph glyph-name="uni06CB" unicode="&#x6cb;" arabic-form="isolated" 
d="M877 11q-29 -5 -65 -5q-154 0 -204 44.5t-50 134.5q0 129 76 309.5t179 180.5q105 0 163 -149t58 -381q0 -202 -121 -373.5t-307 -171.5q-64 0 -235.5 58.5t-171.5 102.5q0 20 14 25t45 5q23 0 69 -10q45 -11 108 -11q116 0 271.5 74.5t170.5 166.5zM872 215
q0 79 -19.5 164t-52.5 85q-28 0 -55 -69t-27 -116t16 -58.5t81 -11.5q36 0 57 6zM893 1426l-156 -154l-153 154l153 153zM1033 1149l-154 -157l-141 141l-154 -154l-153 154l156 156l138 -140l154 153z" />
    <glyph glyph-name="uni06CC" unicode="&#x6cc;" arabic-form="isolated" 
d="M987 504q-46 51 -98 51q-45 0 -138 -51.5t-93 -73.5q0 -15 121 -31q164 -22 216.5 -73.5t52.5 -133.5q0 -66 -65 -198t-211.5 -184.5t-281.5 -52.5q-435 0 -435 334q0 61 66.5 230.5t111.5 169.5q25 0 34.5 -7.5t9.5 -38.5q0 -32 -34 -124q-33 -92 -33 -139
q0 -97 68.5 -143t236.5 -46q157 0 279.5 31.5t122.5 89.5q0 23 -22 34t-118 24q-119 17 -177 49.5t-58 102.5q0 153 122 299.5t272 146.5q47 0 85 -29.5t38 -79.5q0 -109 -72 -157z" />
    <glyph glyph-name="uni06CD.fina" unicode="&#x6cd;" 
d="M1229 0q-47 0 -114 6t-125 6q-161 0 -186 -10q6 -21 110 -40q166 -31 166 -109q0 -196 -171.5 -310t-367.5 -114q-210 0 -303 100q-87 95 -87 300q0 55 27 135q23 71 48 111q-189 -81 -201 -81q-20 0 -20 44q0 43 14 50q22 12 157 69q139 58 147 58q46 0 46 -48
q0 -37 -33.5 -126.5t-33.5 -136.5q0 -118 59 -170q64 -57 217 -57q93 0 224 20t131 53q0 23 -116 43q-151 26 -151 115q0 145 102 233q96 84 243 84h218v-225z" />
    <glyph glyph-name="uni06CE.medi" unicode="&#x6ce;" 
d="M0 0v225h860q31 0 78.5 14.5t47.5 33.5q0 158 -113 282l117 289q103 -154 139.5 -252t36.5 -215q0 -108 -78 -242.5t-185 -134.5h-903zM1180 -231l-155 -157l-141 136l-153 -148l-154 154l156 156l139 -141l154 154zM1157 1259q-1 -3 -69 -98l-107 -149l-108 149
q-67 93 -68 98q-4 19 38 29t52 -2q3 -3 48 -71q11 -17 38 -59l38 59q20 32 47 71q10 12 53 2q42 -10 38 -29z" />
    <glyph glyph-name="uni06CE.fina" unicode="&#x6ce;" 
d="M1229 0q-67 0 -134 6t-125 6q-161 0 -186 -10q6 -21 110 -40q166 -31 166 -109q0 -196 -171.5 -310t-397.5 -114q-430 0 -430 400q0 60 70.5 217.5t120.5 157.5q23 0 31.5 -10t8.5 -39q0 -28 -40 -113t-40 -138q0 -227 316 -227q123 0 254 20t131 53q0 23 -116 43
q-151 26 -151 115q0 143 99 230t246 87h238v-225zM697 759q-1 -3 -69 -98l-107 -149l-108 149q-67 93 -68 98q-4 19 38 29t52 -2q3 -3 48 -71q11 -17 38 -59l38 59q20 32 47 71q10 12 53 2q42 -10 38 -29z" />
    <glyph glyph-name="uni06CF.fina" unicode="&#x6cf;" 
d="M1229 225v-225h-210q-43 -177 -152.5 -288.5t-256.5 -111.5q-61 0 -234 58t-173 99q0 34 59 34q18 0 68 -10q50 -11 109 -11q113 0 270.5 75t170.5 162q-57 -6 -65 -6q-146 0 -199.5 46t-53.5 138q0 132 76 318.5t178 186.5q94 0 151.5 -127t68.5 -338h193zM876 231
q0 79 -19.5 164t-52.5 85q-25 0 -53.5 -65.5t-28.5 -118.5q0 -47 16.5 -59t80.5 -12q33 0 57 6zM918 1130l-153 -154l-154 154l154 153z" />
    <glyph glyph-name="uni06D0" unicode="&#x6d0;" arabic-form="isolated" 
d="M987 504q-46 51 -98 51q-45 0 -138 -51.5t-93 -73.5q0 -15 121 -31q164 -22 216.5 -73.5t52.5 -133.5q0 -66 -65 -198t-211.5 -184.5t-281.5 -52.5q-435 0 -435 334q0 61 66.5 230.5t111.5 169.5q25 0 34.5 -7.5t9.5 -38.5q0 -32 -34 -124q-33 -92 -33 -139
q0 -97 68.5 -143t236.5 -46q157 0 279.5 31.5t122.5 89.5q0 23 -22 34t-118 24q-119 17 -177 49.5t-58 102.5q0 153 122 299.5t272 146.5q47 0 85 -29.5t38 -79.5q0 -109 -72 -157zM598 -501l-81 -60l-79 60l69 50l-77 59l79 60l81 -60l-72 -51z" />
    <glyph glyph-name="uni06D1.fina" unicode="&#x6d1;" 
d="M1229 0q-67 0 -134 6q-16 1 -93 13q-67 10 -88 10q-131 0 -131 -27q0 -20 111 -40q141 -26 141 -84q0 -33 -37 -79t-76 -66q-150 -80 -356 -80q-216 0 -373 105q-96 64 -96 162q0 47 50 159q56 125 104 125q40 0 40 -49q0 -27 -32 -86t-32 -111q0 -46 67 -77
q75 -34 239 -39q22 0 117 1q58 2 106.5 8t103.5 14q45 8 45 22q0 9 -20 13q-59 15 -76 20q-147 45 -147 92q0 41 9 58q11 22 58 64q104 91 262 91h238v-225zM557 -449l-78 -60l-80 61l80 59l70 -49l79 57l80 -59l-80 -61zM633 -551l-80 -60l-80 60l80 59z" />
    <glyph glyph-name="uni06D2" unicode="&#x6d2;" arabic-form="isolated" 
d="M1227 -185q-37 -123 -58 -155q-47 -70 -149 -70h-707q-133 0 -183 92q-40 72 -40 233q0 149 192 236q53 23 155 75q31 18 104 156q67 126 107 126q64 0 57 -283q-22 107 -66 107q-36 0 -73 -119q-41 -130 -69 -146q-39 -17 -148 -67q-102 -49 -122 -62q-34 -23 -34 -55
q0 -55 103 -61q127 -7 225 -7h706z" />
    <glyph glyph-name="uni06D3" unicode="&#x6d3;" arabic-form="isolated" 
d="M1227 -185q-37 -123 -58 -155q-47 -70 -149 -70h-707q-133 0 -183 92q-40 72 -40 233q0 149 192 236q53 23 155 75q31 18 104 156q67 126 107 126q64 0 57 -283q-22 107 -66 107q-36 0 -73 -119q-41 -130 -69 -146q-39 -17 -148 -67q-102 -49 -122 -62q-34 -23 -34 -55
q0 -55 103 -61q127 -7 225 -7h706zM158 571l13 72q51 34 74 64q-95 30 -95 101q0 66 44.5 128t105.5 62q101 0 101 -89q0 -24 -20 -65q-81 59 -127 59q-32 0 -32 -29q0 -36 41.5 -63t86.5 -27q50 0 116 32v-114z" />
    <glyph glyph-name="uni06EE.fina" unicode="&#x6ee;" 
d="M1229 1l-189 -1q-151 0 -226 174q-20 -51 -88.5 -94t-162.5 -43q-150 0 -209.5 49t-60.5 148q1 41 30.5 107t56.5 66q30 0 34 -73q4 -72 161 -72q110 1 154.5 23t44.5 78q0 86 -24 248.5t-40 196.5l172 229q15 -135 39 -500q1 -99 14 -230q33 -82 123 -82h171v-224z
M977 1190q4 -19 -38 -29q-43 -10 -51 3q-13 14 -49 70q-11 17 -38 59q-13 -20 -38 -59q-21 -32 -48 -71q-10 -12 -52 -2t-38 29q1 5 68 98l108 149l107 -149q34 -46 69 -98z" />
    <glyph glyph-name="uni06EF.fina" unicode="&#x6ef;" 
d="M1229 225v-225h-90q-65 0 -117.5 30.5t-69.5 77.5q-35 -226 -152.5 -377.5t-286.5 -151.5q-83 0 -247 67t-164 114q0 32 50 32q7 0 68 -14q61 -13 138 -13q167 0 335 142t168 245q0 193 -165 371l137 270q50 -90 84 -188t44.5 -206t46.5 -140.5t131 -33.5h90zM880 986
q4 -19 -38 -29q-43 -10 -51 3q-13 14 -49 70q-11 17 -38 59q-13 -20 -38 -59q-21 -32 -48 -71q-10 -12 -52 -2t-38 29q1 5 68 98l108 149l107 -149q34 -46 69 -98z" />
    <glyph glyph-name="uni06FA.init" unicode="&#x6fa;" 
d="M751 48q-65 -48 -132 -48q-112 0 -171 62q-74 -62 -171 -62h-277v225h283q60 0 100 131q66 218 154 218q54 0 54 -58q0 -59 -27 -140q-26 -80 -26 -112q0 -22 9 -31.5t48 -9.5q57 0 68 57q58 298 122 298q65 0 65 -98q0 -31 -10 -89q-10 -57 -10 -88q0 -40 17 -61t82 -21
q80 0 80 109q0 111 -95 270l151 210q53 -75 82.5 -195t29.5 -224q0 -183 -75 -287t-221 -104q-78 0 -130 48zM898 -378l-153 -154l-154 154l154 153zM873 1426l-156 -154l-153 154l153 153zM1013 1149l-154 -157l-141 141l-154 -154l-153 154l156 156l138 -140l154 153z" />
    <glyph glyph-name="uni06FA.medi" unicode="&#x6fa;" 
d="M1229 225v-225q-180 0 -226 162q-46 -101 -96 -131.5t-123 -30.5q-77 0 -130 47q-64 -47 -132 -47q-111 0 -171 61q-72 -61 -171 -61h-180v225h185q27 1 56.5 40.5t44.5 89.5q67 218 154 218q54 0 54 -58q0 -59 -26 -139q-27 -81 -27 -113q0 -26 11 -33.5t46 -7.5
q57 0 68 57q58 298 122 298q65 0 65 -98q0 -31 -10 -88q-10 -58 -10 -89q0 -39 17 -60.5t82 -21.5q80 0 80 109q0 132 -72 272l133 205q37 -86 61 -212t24 -206t42.5 -121.5t128.5 -41.5zM798 -378l-153 -154l-154 154l154 153zM773 1426l-156 -154l-153 154l153 153z
M913 1149l-154 -157l-141 141l-154 -154l-153 154l156 156l138 -140l154 153z" />
    <glyph glyph-name="uni06FA.fina" unicode="&#x6fa;" 
d="M1229 225v-225q-106 0 -157 48q-66 -46 -165 -46q-86 0 -123 56q-32 -60 -108 -60q-52 0 -82 34q0 -176 -82 -290t-233 -114q-279 0 -279 456q0 104 71.5 315t137.5 211q30 0 30 -54q0 -43 -62 -184q-54 -123 -54 -297q0 -103 45 -164t123 -61q114 0 152 52t38 144
q0 126 -66 279q37 184 50 313q102 -122 130 -407q24 -23 60 -23q48 0 77 154q25 130 49.5 175t67.5 45t43 -95q0 -28 -10 -89t-10 -90q0 -93 80 -93q35 0 59 28.5t24 68.5q0 154 -71 318l145 202q67 -282 68.5 -444.5t51.5 -162.5zM998 -378l-153 -154l-154 154l154 153z
M873 1426l-156 -154l-153 154l153 153zM1013 1149l-154 -157l-141 141l-154 -154l-153 154l156 156l138 -140l154 153z" />
    <glyph glyph-name="uni06FB.init" unicode="&#x6fb;" 
d="M316 73q-92 -73 -316 -73v225h104q72 0 109 73q52 149 65.5 169t30.5 30t37 10q47 0 47 -60q0 -24 -12 -84q-11 -61 -11 -84q0 -71 102 -71q169 320 271.5 417.5t203.5 97.5q237 0 237 -353q0 -127 -55.5 -210t-166.5 -121.5t-371 -38.5q-206 0 -275 73zM627 225h284
q128 0 128 104q0 170 -133 170q-121 0 -279 -274zM949 1042l-153 -154l-154 154l154 153zM949 -378l-153 -154l-154 154l154 153z" />
    <glyph glyph-name="uni06FB.medi" unicode="&#x6fb;" 
d="M1144 244q15 -19 85 -19v-225q-144 0 -198 96q-53 -56 -142 -76t-298 -20q-206 0 -275 73q-92 -73 -316 -73v225h104q72 0 109 73q52 149 65.5 169t30.5 30t37 10q47 0 47 -60q0 -24 -12 -84q-11 -61 -11 -84q0 -71 102 -71q169 320 271.5 417.5t203.5 97.5
q119 0 179 -93t60 -239q0 -92 -42 -147zM627 225h284q128 0 128 104q0 170 -133 170q-121 0 -279 -274zM949 1042l-153 -154l-154 154l154 153zM949 -378l-153 -154l-154 154l154 153z" />
    <glyph glyph-name="uni06FB.fina" unicode="&#x6fb;" 
d="M1139 255q28 -30 90 -30v-225q-105 0 -176 92q-129 -93 -286 -93q-141 0 -194 36q-45 -421 -306 -421q-147 0 -205.5 113.5t-58.5 379.5q0 142 73 322t127 180q39 0 39 -34q0 -33 -64 -200q-57 -150 -57 -303q0 -97 47 -160t118 -63q185 0 185 196q0 123 -59 274l51 331
q110 -309 113 -442q23 0 38 2q121 304 198.5 410.5t146.5 106.5q214 0 214 -336q0 -106 -34 -136zM731 226q63 -9 204 -9q101 0 101 88q0 87 -37.5 140t-90.5 53q-85 0 -177 -272zM1052 1035l-153 -154l-154 154l154 153zM1052 -378l-153 -154l-154 154l154 153z" />
    <glyph glyph-name="uni06FC.init" unicode="&#x6fc;" 
d="M993 405l-32 -228q-82 -19 -252 -69q-368 -108 -563 -108h-146v225h45q188 0 294 22q-83 75 -83 120q0 141 114 272.5t262 131.5q120 0 215.5 -71.5t95.5 -139.5q0 -46 -25 -46q-10 0 -30 18q-80 70 -263 70q-59 0 -139.5 -41t-80.5 -90q0 -70 78.5 -108.5t187.5 -38.5
q36 0 82 8t240 73zM696 1186l-153 -154l-154 154l154 153zM798 -378l-153 -154l-154 154l154 153z" />
    <glyph glyph-name="uni06FC.medi" unicode="&#x6fc;" 
d="M1229 0h-177q-220 0 -327 268q-53 -27 -120 -92q-181 -176 -344 -176h-261v225h272q48 0 101.5 15.5t262.5 149.5q-78 66 -214 76l85 219q157 45 249 45q286 0 286 -188q0 -118 -201 -218q47 -59 123.5 -79t264.5 -20v-225zM589 572q98 -47 174 -124q36 11 78.5 41.5
t42.5 51.5q0 64 -129 64q-76 0 -166 -33zM921 1180l-153 -154l-154 154l154 153zM858 -378l-153 -154l-154 154l154 153z" />
    <glyph glyph-name="uni06FC.fina" unicode="&#x6fc;" 
d="M1229 -274q0 -51 -78 -140q-82 -95 -186.5 -147.5t-205.5 -52.5q-164 0 -270 51q-151 74 -210.5 170.5t-59.5 254.5q0 117 154 295q114 132 246 232q-62 65 -211 76l85 219q169 45 249 45q206 0 267 -77q32 -42 32 -108q0 -114 -212 -219q36 -59 116 -79.5t284 -20.5
v-225h-194q-214 0 -330 277q-108 -77 -210 -207q-47 -70 -58.5 -96.5t-11.5 -80.5q0 -62 57.5 -133t134.5 -100q84 -32 159 -32q94 0 156.5 18.5t244.5 83.5q23 8 37.5 8t14.5 -12zM884 542q0 64 -129 64q-71 0 -166 -34q105 -54 174 -123q38 12 79.5 42.5t41.5 50.5z
M925 1179l-153 -154l-154 154l154 153zM868 -156l-153 -154l-154 154l154 153z" />
    <glyph glyph-name="uni06FF.init" unicode="&#x6ff;" 
d="M807 -16q-86 49 -234 122q-124 -106 -320 -106h-253v225q245 0 334 27q0 141 138 304q-57 24 -99 24q12 45 35.5 102t55.5 71.5t84 14.5q161 0 279 -161.5t118 -328.5q0 -106 -138 -294zM481 314q27 -7 54 -15q106 114 106 184q0 27 -5 36t-31 9q-30 0 -87 -72.5
t-57 -98.5q0 -33 20 -43zM719 467q0 -118 -63 -212q83 -25 151 -58q8 21 8 69q0 113 -96 201zM737 986q4 -19 -38 -29q-43 -10 -51 3q-13 14 -49 70q-11 17 -38 59q-13 -20 -38 -59q-21 -32 -48 -71q-10 -12 -52 -2t-38 29q1 5 68 98l108 149l107 -149q34 -46 69 -98z" />
    <glyph glyph-name="uni06FF.medi" unicode="&#x6ff;" 
d="M1229 0q-218 0 -358 -25q28 -36 28 -78q0 -106 -70.5 -214t-173.5 -108q-98 0 -156 95t-59 233l-114 -29q7 76 24 134q-55 -8 -137 -8h-213v225q452 0 470 22q102 186 225.5 344.5t190.5 158.5q130 0 130 -170q0 -294 -158 -378q75 23 174 23h197v-225zM603 232
q73 10 184 106.5t111 164.5q0 53 -37 53q-31 0 -60.5 -17t-58 -51t-42.5 -61t-97 -195zM572 32q-15 -69 -15 -123q0 -151 114 -151q101 0 101 103q0 47 -63 106t-137 65zM997 986q4 -19 -38 -29q-43 -10 -51 3q-13 14 -49 70q-11 17 -38 59q-13 -20 -38 -59q-21 -32 -48 -71
q-10 -12 -52 -2t-38 29q1 5 68 98l108 149l107 -149q34 -46 69 -98z" />
    <glyph glyph-name="uni06FF.fina" unicode="&#x6ff;" 
d="M1229 0q-218 0 -358 -25q28 -36 28 -78q0 -106 -70.5 -214t-173.5 -108q-98 0 -156 95t-59 233l-114 -29q7 76 24 134q-55 -8 -137 -8h-213v225q452 0 470 22q102 186 225.5 344.5t190.5 158.5q130 0 130 -170q0 -294 -158 -378q75 23 174 23h197v-225zM603 232
q73 10 184 106.5t111 164.5q0 53 -37 53q-31 0 -60.5 -17t-58 -51t-42.5 -61t-97 -195zM572 32q-15 -69 -15 -123q0 -151 114 -151q101 0 101 103q0 47 -63 106t-137 65zM997 986q4 -19 -38 -29q-43 -10 -51 3q-13 14 -49 70q-11 17 -38 59q-13 -20 -38 -59q-21 -32 -48 -71
q-10 -12 -52 -2t-38 29q1 5 68 98l108 149l107 -149q34 -46 69 -98z" />
    <glyph glyph-name="uniFB51" unicode="&#x671;" arabic-form="final" 
d="M483 1482q123 193 211 193q33 0 56.5 -36.5t23.5 -85.5q0 -117 -62.5 -151t-284.5 -34q-24 0 -48 -56q-10 -25 -23 -25q-27 0 -27 60q0 133 154 135zM534 1482q141 0 165.5 4t24.5 30q0 65 -52 65q-57 0 -138 -99zM1229 0h-426q-146 0 -200 24q-61 26 -90.5 114.5
t-29.5 248.5q0 62 6 175.5t6 143.5q0 215 -36 373l157 205q61 -214 61 -454q0 -71 -7 -227.5t-7 -243.5q0 -81 11 -106q12 -28 52 -28h503v-225z" />
    <glyph glyph-name="uniFB53" unicode="&#x67b;" arabic-form="final" 
d="M1229 225v-225q-185 0 -231 176q-16 -49 -65 -97t-97 -63t-137 -15h-264q-435 0 -435 255q0 77 65.5 218t118.5 141q37 0 37 -40q0 -20 -33 -95q-32 -75 -32 -107q0 -148 312 -148h295q142 0 142 87q0 145 -67 282l130 219q89 -295 90 -410t48 -146.5t123 -31.5z
M668 -504l-111 -110l-109 110l99 100l-107 109l109 110l111 -110l-102 -101z" />
    <glyph glyph-name="uniFB54" unicode="&#x67b;" arabic-form="initial" 
d="M0 0v225h860q31 0 78.5 14.5t47.5 33.5q0 158 -113 282l117 289q103 -154 139.5 -252t36.5 -215q0 -108 -78 -242.5t-185 -134.5h-903zM1088 -504l-111 -110l-109 110l99 100l-107 109l109 110l111 -110l-102 -101z" />
    <glyph glyph-name="uniFB55" unicode="&#x67b;" arabic-form="medial" 
d="M1229 0h-81q-186 0 -256 38.5t-126 152.5q-112 -191 -223 -191h-543v225h532q120 0 120 104q0 98 -66 255l153 269q84 -265 103 -452q6 -62 19 -87.5t36 -43.5t55 -29t56.5 -13.5t220.5 -2.5v-225zM888 -504l-111 -110l-109 110l99 100l-107 109l109 110l111 -110
l-102 -101z" />
    <glyph glyph-name="uniFB57" unicode="&#x67e;" arabic-form="final" 
d="M1229 225v-225q-185 0 -231 176q-16 -49 -65 -97t-97 -63t-137 -15h-264q-435 0 -435 255q0 77 65.5 218t118.5 141q37 0 37 -40q0 -20 -33 -95q-32 -75 -32 -107q0 -148 312 -148h295q142 0 142 87q0 145 -67 282l130 219q89 -295 90 -410t48 -146.5t123 -31.5z
M755 -258l-119 -136l-121 115l-106 -108l-119 122l115 133l118 -126l108 119zM640 -482l-116 -132l-118 132l118 116z" />
    <glyph glyph-name="uniFB58" unicode="&#x67e;" arabic-form="initial" 
d="M0 0v225h860q31 0 78.5 14.5t47.5 33.5q0 158 -113 282l117 289q103 -154 139.5 -252t36.5 -215q0 -108 -78 -242.5t-185 -134.5h-903zM1048 -258l-119 -136l-121 115l-106 -108l-119 122l115 133l118 -126l108 119zM933 -482l-116 -132l-118 132l118 116z" />
    <glyph glyph-name="uniFB59" unicode="&#x67e;" arabic-form="medial" 
d="M1229 0h-81q-186 0 -256 38.5t-126 152.5q-112 -191 -223 -191h-543v225h532q120 0 120 104q0 98 -66 255l153 269q84 -265 103 -452q6 -62 19 -87.5t36 -43.5t55 -29t56.5 -13.5t220.5 -2.5v-225zM964 -234l-119 -136l-121 115l-106 -108l-119 122l115 133l118 -126
l108 119zM849 -458l-116 -132l-118 132l118 116z" />
    <glyph glyph-name="uniFB5B" unicode="&#x680;" arabic-form="final" 
d="M1229 225v-225q-185 0 -231 176q-16 -49 -65 -97t-97 -63t-137 -15h-264q-435 0 -435 255q0 77 65.5 218t118.5 141q37 0 37 -40q0 -20 -33 -95q-32 -75 -32 -107q0 -148 312 -148h295q142 0 142 87q0 145 -67 282l130 219q89 -295 90 -410t48 -146.5t123 -31.5z
M774 -495l-110 -111l-101 102l-108 -110l-110 111l96 96l-105 106l110 109l100 -99l109 107l110 -109l-97 -97zM650 -399l-96 97l-95 -96l96 -95z" />
    <glyph glyph-name="uniFB5C" unicode="&#x680;" arabic-form="initial" 
d="M0 0v225h860q31 0 78.5 14.5t47.5 33.5q0 158 -113 282l117 289q103 -154 139.5 -252t36.5 -215q0 -108 -78 -242.5t-185 -134.5h-903zM1194 -495l-110 -111l-101 102l-108 -110l-110 111l96 96l-105 106l110 109l100 -99l109 107l110 -109l-97 -97zM1070 -399l-96 97
l-95 -96l96 -95z" />
    <glyph glyph-name="uniFB5D" unicode="&#x680;" arabic-form="medial" 
d="M1229 0h-81q-186 0 -256 38.5t-126 152.5q-112 -191 -223 -191h-543v225h532q120 0 120 104q0 98 -66 255l153 269q84 -265 103 -452q6 -62 19 -87.5t36 -43.5t55 -29t56.5 -13.5t220.5 -2.5v-225zM994 -495l-110 -111l-101 102l-108 -110l-110 111l96 96l-105 106
l110 109l100 -99l109 107l110 -109l-97 -97zM870 -399l-96 97l-95 -96l96 -95z" />
    <glyph glyph-name="uniFB5F" unicode="&#x67a;" arabic-form="final" 
d="M1229 225v-225q-185 0 -231 176q-16 -49 -65 -97t-97 -63t-137 -15h-264q-435 0 -435 255q0 77 65.5 218t118.5 141q37 0 37 -40q0 -20 -33 -95q-32 -75 -32 -107q0 -148 312 -148h295q142 0 142 87q0 145 -67 282l130 219q89 -295 90 -410t48 -146.5t123 -31.5zM668 871
l-111 -110l-109 110l99 100l-107 109l109 110l111 -110l-102 -101z" />
    <glyph glyph-name="uniFB60" unicode="&#x67a;" arabic-form="initial" 
d="M0 0v225h860q31 0 78.5 14.5t47.5 33.5q0 158 -113 282l117 289q103 -154 139.5 -252t36.5 -215q0 -108 -78 -242.5t-185 -134.5h-903zM1088 1072l-111 -110l-109 110l99 100l-107 109l109 110l111 -110l-102 -101z" />
    <glyph glyph-name="uniFB61" unicode="&#x67a;" arabic-form="medial" 
d="M1229 0h-81q-186 0 -256 38.5t-126 152.5q-112 -191 -223 -191h-543v225h532q120 0 120 104q0 98 -66 255l153 269q84 -265 103 -452q6 -62 19 -87.5t36 -43.5t55 -29t56.5 -13.5t220.5 -2.5v-225zM788 1072l-111 -110l-109 110l99 100l-107 109l109 110l111 -110
l-102 -101z" />
    <glyph glyph-name="uniFB63" unicode="&#x67f;" arabic-form="final" 
d="M1229 225v-225q-185 0 -231 176q-16 -49 -65 -97t-97 -63t-137 -15h-264q-435 0 -435 255q0 77 65.5 218t118.5 141q37 0 37 -40q0 -20 -33 -95q-32 -75 -32 -107q0 -148 312 -148h295q142 0 142 87q0 145 -67 282l130 219q89 -295 90 -410t48 -146.5t123 -31.5zM774 882
l-110 -111l-101 102l-108 -110l-110 111l96 96l-105 106l110 109l100 -99l109 107l110 -109l-97 -97zM650 978l-96 97l-95 -96l96 -95z" />
    <glyph glyph-name="uniFB64" unicode="&#x67f;" arabic-form="initial" 
d="M0 0v225h860q31 0 78.5 14.5t47.5 33.5q0 158 -113 282l117 289q103 -154 139.5 -252t36.5 -215q0 -108 -78 -242.5t-185 -134.5h-903zM1194 1054l-110 -111l-101 102l-108 -110l-110 111l96 96l-105 106l110 109l100 -99l109 107l110 -109l-97 -97zM1070 1150l-96 97
l-95 -96l96 -95z" />
    <glyph glyph-name="uniFB65" unicode="&#x67f;" arabic-form="medial" 
d="M1229 0h-81q-186 0 -256 38.5t-126 152.5q-112 -191 -223 -191h-543v225h532q120 0 120 104q0 98 -66 255l153 269q84 -265 103 -452q6 -62 19 -87.5t36 -43.5t55 -29t56.5 -13.5t220.5 -2.5v-225zM894 1054l-110 -111l-101 102l-108 -110l-110 111l96 96l-105 106
l110 109l100 -99l109 107l110 -109l-97 -97zM770 1150l-96 97l-95 -96l96 -95z" />
    <glyph glyph-name="uniFB67" unicode="&#x679;" arabic-form="final" 
d="M1229 225v-225q-185 0 -231 176q-16 -49 -65 -97t-97 -63t-137 -15h-264q-435 0 -435 255q0 77 65.5 218t118.5 141q37 0 37 -40q0 -20 -33 -95q-32 -75 -32 -107q0 -148 312 -148h295q142 0 142 87q0 145 -67 282l130 219q89 -295 90 -410t48 -146.5t123 -31.5z
M890 1130q0 -188 -258 -188h-231q-83 0 -109 114h112q48 45 48 121q0 254 -35 312l64 104l88 -90q-43 -50 -40 -171l2 -70q1 -28 -16 -125q139 170 244 170q131 0 131 -177zM810 1108q0 35 -22 62t-56 27q-38 0 -89 -39q-20 -15 -120 -102h199q88 0 88 52z" />
    <glyph glyph-name="uniFB68" unicode="&#x679;" arabic-form="initial" 
d="M0 0v225h860q31 0 78.5 14.5t47.5 33.5q0 158 -113 282l117 289q103 -154 139.5 -252t36.5 -215q0 -108 -78 -242.5t-185 -134.5h-903zM1210 1130q0 -188 -258 -188h-231q-83 0 -109 114h112q48 45 48 121q0 254 -35 312l64 104l88 -90q-43 -50 -40 -171l2 -70
q1 -28 -16 -125q139 170 244 170q131 0 131 -177zM1130 1108q0 35 -22 62t-56 27q-38 0 -89 -39q-20 -15 -120 -102h199q88 0 88 52z" />
    <glyph glyph-name="uniFB69" unicode="&#x679;" arabic-form="medial" 
d="M1229 0h-81q-186 0 -256 38.5t-126 152.5q-112 -191 -223 -191h-543v225h532q120 0 120 104q0 98 -66 255l153 269q84 -265 103 -452q6 -62 19 -87.5t36 -43.5t55 -29t56.5 -13.5t220.5 -2.5v-225zM950 1130q0 -188 -258 -188h-231q-83 0 -109 114h112q48 45 48 121
q0 254 -35 312l64 104l88 -90q-43 -50 -40 -171l2 -70q1 -28 -16 -125q139 170 244 170q131 0 131 -177zM870 1108q0 35 -22 62t-56 27q-38 0 -89 -39q-20 -15 -120 -102h199q88 0 88 52z" />
    <glyph glyph-name="uniFB6B" unicode="&#x6a4;" arabic-form="final" 
d="M1229 0q-93 0 -149.5 17t-107.5 80q-89 -62 -186 -96t-286 -34q-227 0 -318 27.5t-136.5 87t-45.5 150.5q0 78 58 214.5t120 136.5q43 0 43 -42q0 -21 -30 -94q-29 -74 -29 -111q0 -71 78 -107t285 -36q205 0 288 57q-109 119 -109 186q0 89 109.5 233t198.5 144
q69 0 117 -76.5t48 -153.5q0 -212 -72 -332q23 -26 124 -26v-225zM1036 536q0 36 -24 63t-59 27q-36 0 -64.5 -34.5t-28.5 -71.5q0 -76 115 -191q61 90 61 207zM1099 1320l-156 -154l-153 154l153 153zM1239 1043l-154 -157l-141 141l-154 -154l-153 154l156 156l138 -140
l154 153z" />
    <glyph glyph-name="uniFB6C" unicode="&#x6a4;" arabic-form="initial" 
d="M0 0v225h783q102 0 156.5 8t89.5 39t35 84q-83 -34 -131 -34q-77 0 -149.5 36.5t-72.5 98.5q0 131 78 289t181 158q104 0 173 -158.5t69 -304.5q0 -253 -88.5 -347t-343.5 -94h-780zM1020 540q-6 56 -31 107t-52 51q-33 0 -58.5 -59.5t-25.5 -106.5q0 -28 62 -28
q46 0 105 36zM1086 1441l-156 -154l-153 154l153 153zM1226 1164l-154 -157l-141 141l-154 -154l-153 154l156 156l138 -140l154 153z" />
    <glyph glyph-name="uniFB6D" unicode="&#x6a4;" arabic-form="medial" 
d="M1229 0q-97 0 -155.5 17.5t-107.5 77.5q-139 -95 -426 -95h-540v225h353q349 0 454 22q-103 128 -103 216t106 218t196 130q68 0 116.5 -76.5t48.5 -154.5q0 -212 -72 -332q20 -23 130 -23v-225zM969 326q40 59 50 99.5t10 108.5q0 36 -23.5 63t-58.5 27q-36 0 -65 -35
t-29 -72q0 -75 116 -191zM1085 1345l-156 -154l-153 154l153 153zM1225 1068l-154 -157l-141 141l-154 -154l-153 154l156 156l138 -140l154 153z" />
    <glyph glyph-name="uniFB6F" unicode="&#x6a6;" arabic-form="final" 
d="M1229 0q-93 0 -149.5 17t-107.5 80q-89 -62 -186 -96t-286 -34q-227 0 -318 27.5t-136.5 87t-45.5 150.5q0 78 58 214.5t120 136.5q43 0 43 -42q0 -21 -30 -94q-29 -74 -29 -111q0 -71 78 -107t285 -36q205 0 288 57q-109 119 -109 186q0 89 109.5 233t198.5 144
q69 0 117 -76.5t48 -153.5q0 -212 -72 -332q23 -26 124 -26v-225zM1036 536q0 36 -24 63t-59 27q-36 0 -64.5 -34.5t-28.5 -71.5q0 -76 115 -191q61 90 61 207zM1194 1140l-110 -111l-101 102l-108 -110l-110 111l96 96l-105 106l110 109l100 -99l109 107l110 -109l-97 -97z
M1070 1236l-96 97l-95 -96l96 -95z" />
    <glyph glyph-name="uniFB70" unicode="&#x6a6;" arabic-form="initial" 
d="M0 0v225h783q102 0 156.5 8t89.5 39t35 84q-83 -34 -131 -34q-77 0 -149.5 36.5t-72.5 98.5q0 131 78 289t181 158q104 0 173 -158.5t69 -304.5q0 -253 -88.5 -347t-343.5 -94h-780zM1020 540q-6 56 -31 107t-52 51q-33 0 -58.5 -59.5t-25.5 -106.5q0 -28 62 -28
q46 0 105 36zM1194 1140l-110 -111l-101 102l-108 -110l-110 111l96 96l-105 106l110 109l100 -99l109 107l110 -109l-97 -97zM1070 1236l-96 97l-95 -96l96 -95z" />
    <glyph glyph-name="uniFB71" unicode="&#x6a6;" arabic-form="medial" 
d="M1229 0q-97 0 -155.5 17.5t-107.5 77.5q-139 -95 -426 -95h-540v225h353q349 0 454 22q-103 128 -103 216t106 218t196 130q68 0 116.5 -76.5t48.5 -154.5q0 -212 -72 -332q20 -23 130 -23v-225zM969 326q40 59 50 99.5t10 108.5q0 36 -23.5 63t-58.5 27q-36 0 -65 -35
t-29 -72q0 -75 116 -191zM1194 1140l-110 -111l-101 102l-108 -110l-110 111l96 96l-105 106l110 109l100 -99l109 107l110 -109l-97 -97zM1070 1236l-96 97l-95 -96l96 -95z" />
    <glyph glyph-name="uniFB73" unicode="&#x684;" arabic-form="final" 
d="M1229 0h-353q-183 0 -183 208q0 34 5 83q-111 -42 -229 -156q-143 -139 -143 -266q0 -130 102 -212q96 -78 238 -78q233 0 448 152q11 8 36 8q16 0 16 -15q1 -50 -75 -132q-85 -92 -204 -147q-129 -59 -243 -59q-209 0 -349 140q-135 134 -135 319q0 272 495 584
q-202 113 -276 113q-44 0 -97.5 -41.5t-58.5 -41.5q-35 0 -35 77q0 81 77 155t158 74q56 0 111 -20.5t185 -93.5q179 -100 393 -100l-106 -219q-78 16 -158 16q-7 -17 -7 -45q0 -78 135 -78h253v-225zM708 -244l-111 -110l-109 110l99 100l-107 109l109 110l111 -110
l-102 -101z" />
    <glyph glyph-name="uniFB74" unicode="&#x684;" arabic-form="initial" 
d="M1229 500l-81 -224q-223 0 -295 -18t-212 -110q-226 -148 -446 -148h-195v225h295q127 0 362 121q100 51 166 67q-177 141 -304 141q-50 0 -113 -66q-26 -27 -40 -27q-41 0 -41 72q0 89 81.5 156.5t167.5 67.5q52 0 103 -22t184 -116q105 -74 187.5 -96.5t180.5 -22.5z
M928 -504l-111 -110l-109 110l99 100l-107 109l109 110l111 -110l-102 -101z" />
    <glyph glyph-name="uniFB75" unicode="&#x684;" arabic-form="medial" 
d="M1229 0h-342q-194 0 -194 235q0 31 12 75q-45 -23 -96 -78q-219 -232 -362 -232h-247v225q56 -2 95 -2q221 0 389 106q108 68 190 100q-69 41 -166 79.5t-133 38.5q-67 0 -114 -61q-21 -28 -34 -28q-48 0 -48 75q0 92 83.5 161.5t168.5 69.5q89 0 192 -58
q163 -92 249 -123.5t242 -31.5l-106 -219q-68 16 -161 16q-5 -23 -5 -51q0 -40 30.5 -56t111.5 -16h245v-225zM828 -504l-111 -110l-109 110l99 100l-107 109l109 110l111 -110l-102 -101z" />
    <glyph glyph-name="uniFB77" unicode="&#x683;" arabic-form="final" 
d="M1229 0h-353q-183 0 -183 208q0 34 5 83q-111 -42 -229 -156q-143 -139 -143 -266q0 -130 102 -212q96 -78 238 -78q233 0 448 152q11 8 36 8q16 0 16 -15q1 -50 -75 -132q-85 -92 -204 -147q-129 -59 -243 -59q-209 0 -349 140q-135 134 -135 319q0 272 495 584
q-202 113 -276 113q-44 0 -97.5 -41.5t-58.5 -41.5q-35 0 -35 77q0 81 77 155t158 74q56 0 111 -20.5t185 -93.5q179 -100 393 -100l-106 -219q-78 16 -158 16q-7 -17 -7 -45q0 -78 135 -78h253v-225zM951 -170l-155 -157l-141 136l-153 -148l-154 154l156 156l139 -141
l154 154z" />
    <glyph glyph-name="uniFB78" unicode="&#x683;" arabic-form="initial" 
d="M1229 500l-81 -224q-223 0 -295 -18t-212 -110q-226 -148 -446 -148h-195v225h295q127 0 362 121q100 51 166 67q-177 141 -304 141q-50 0 -113 -66q-26 -27 -40 -27q-41 0 -41 72q0 89 81.5 156.5t167.5 67.5q52 0 103 -22t184 -116q105 -74 187.5 -96.5t180.5 -22.5z
M991 -384l-155 -157l-141 136l-153 -148l-154 154l156 156l139 -141l154 154z" />
    <glyph glyph-name="uniFB79" unicode="&#x683;" arabic-form="medial" 
d="M1229 0h-342q-194 0 -194 235q0 31 12 75q-45 -23 -96 -78q-219 -232 -362 -232h-247v225q56 -2 95 -2q221 0 389 106q108 68 190 100q-69 41 -166 79.5t-133 38.5q-67 0 -114 -61q-21 -28 -34 -28q-48 0 -48 75q0 92 83.5 161.5t168.5 69.5q89 0 192 -58
q163 -92 249 -123.5t242 -31.5l-106 -219q-68 16 -161 16q-5 -23 -5 -51q0 -40 30.5 -56t111.5 -16h245v-225zM891 -384l-155 -157l-141 136l-153 -148l-154 154l156 156l139 -141l154 154z" />
    <glyph glyph-name="uniFB7B" unicode="&#x686;" arabic-form="final" 
d="M1230 0h-351q-183 0 -183 208q0 34 5 83q-111 -42 -229 -156q-143 -139 -143 -266q0 -130 102 -212q96 -78 238 -78q233 0 448 152q11 8 36 8q16 0 16 -15q1 -50 -75 -132q-85 -92 -204 -147q-129 -59 -243 -59q-209 0 -349 140q-135 134 -135 319q0 272 495 584
q-202 113 -276 113q-44 0 -97.5 -41.5t-58.5 -41.5q-35 0 -35 77q0 81 77 155t158 74q56 0 109 -20q57 -21 187 -94q179 -100 393 -100l-106 -219q-78 16 -158 16q-7 -17 -7 -45q0 -78 135 -78h251v-225zM786 -107l-83 -82l-85 90l83 79zM616 -99l-82 -82l-86 86l79 81z
M705 -259l-84 -82l-86 83l85 84z" />
    <glyph glyph-name="uniFB7C" unicode="&#x686;" arabic-form="initial" 
d="M1229 500l-81 -224q-223 0 -295 -18t-212 -110q-226 -148 -446 -148h-195v225h295q127 0 362 121q100 51 166 67q-177 141 -304 141q-50 0 -113 -66q-26 -27 -40 -27q-41 0 -41 72q0 89 81.5 156.5t167.5 67.5q52 0 103 -22t184 -116q105 -74 187.5 -96.5t180.5 -22.5z
M922 -219l-119 -136l-121 115l-106 -108l-119 122l115 133l118 -126l108 119zM807 -443l-116 -132l-118 132l118 116z" />
    <glyph glyph-name="uniFB7D" unicode="&#x686;" arabic-form="medial" 
d="M1229 0h-342q-194 0 -194 235q0 31 12 75q-45 -23 -96 -78q-219 -232 -362 -232h-247v225q56 -2 95 -2q221 0 389 106q108 68 190 100q-69 41 -166 79.5t-133 38.5q-67 0 -114 -61q-21 -28 -34 -28q-48 0 -48 75q0 92 83.5 161.5t168.5 69.5q89 0 192 -58
q163 -92 249 -123.5t242 -31.5l-106 -219q-68 16 -161 16q-5 -23 -5 -51q0 -40 30.5 -56t111.5 -16h245v-225zM801 -226l-119 -136l-121 115l-106 -108l-119 122l115 133l118 -126l108 119zM686 -450l-116 -132l-118 132l118 116z" />
    <glyph glyph-name="uniFB7F" unicode="&#x687;" arabic-form="final" 
d="M1229 0h-353q-183 0 -183 208q0 34 5 83q-111 -42 -229 -156q-143 -139 -143 -266q0 -130 102 -212q96 -78 238 -78q233 0 448 152q11 8 36 8q16 0 16 -15q1 -50 -75 -132q-85 -92 -204 -147q-129 -59 -243 -59q-209 0 -349 140q-135 134 -135 319q0 272 495 584
q-202 113 -276 113q-44 0 -97.5 -41.5t-58.5 -41.5q-35 0 -35 77q0 81 77 155t158 74q56 0 111 -20.5t185 -93.5q179 -100 393 -100l-106 -219q-78 16 -158 16q-7 -17 -7 -45q0 -78 135 -78h253v-225zM814 -245l-110 -111l-101 102l-108 -110l-110 111l96 96l-105 106
l110 109l100 -99l109 107l110 -109l-97 -97zM690 -149l-96 97l-95 -96l96 -95z" />
    <glyph glyph-name="uniFB80" unicode="&#x687;" arabic-form="initial" 
d="M1229 500l-81 -224q-223 0 -295 -18t-212 -110q-226 -148 -446 -148h-195v225h295q127 0 362 121q100 51 166 67q-177 141 -304 141q-50 0 -113 -66q-26 -27 -40 -27q-41 0 -41 72q0 89 81.5 156.5t167.5 67.5q52 0 103 -22t184 -116q105 -74 187.5 -96.5t180.5 -22.5z
M1034 -495l-110 -111l-101 102l-108 -110l-110 111l96 96l-105 106l110 109l100 -99l109 107l110 -109l-97 -97zM910 -399l-96 97l-95 -96l96 -95z" />
    <glyph glyph-name="uniFB81" unicode="&#x687;" arabic-form="medial" 
d="M1229 0h-342q-194 0 -194 235q0 31 12 75q-45 -23 -96 -78q-219 -232 -362 -232h-247v225q56 -2 95 -2q221 0 389 106q108 68 190 100q-69 41 -166 79.5t-133 38.5q-67 0 -114 -61q-21 -28 -34 -28q-48 0 -48 75q0 92 83.5 161.5t168.5 69.5q89 0 192 -58
q163 -92 249 -123.5t242 -31.5l-106 -219q-68 16 -161 16q-5 -23 -5 -51q0 -40 30.5 -56t111.5 -16h245v-225zM934 -495l-110 -111l-101 102l-108 -110l-110 111l96 96l-105 106l110 109l100 -99l109 107l110 -109l-97 -97zM810 -399l-96 97l-95 -96l96 -95z" />
    <glyph glyph-name="uniFB83" unicode="&#x68d;" arabic-form="final" 
d="M1229 1l-189 -1q-151 0 -226 174q-20 -51 -88.5 -94t-162.5 -43q-150 0 -209.5 49t-60.5 148q1 41 30.5 107t56.5 66q30 0 34 -73q4 -72 161 -72q110 1 154.5 23t44.5 78q0 86 -24 248.5t-40 196.5l172 229q15 -135 39 -500q1 -99 14 -230q33 -82 123 -82h171v-224z
M911 -384l-155 -157l-141 136l-153 -148l-154 154l156 156l139 -141l154 154z" />
    <glyph glyph-name="uniFB85" unicode="&#x68c;" arabic-form="final" 
d="M1229 1l-189 -1q-151 0 -226 174q-20 -51 -88.5 -94t-162.5 -43q-150 0 -209.5 49t-60.5 148q1 41 30.5 107t56.5 66q30 0 34 -73q4 -72 161 -72q110 1 154.5 23t44.5 78q0 86 -24 248.5t-40 196.5l172 229q15 -135 39 -500q1 -99 14 -230q33 -82 123 -82h171v-224z
M1051 1330l-155 -157l-141 136l-153 -148l-154 154l156 156l139 -141l154 154z" />
    <glyph glyph-name="uniFB87" unicode="&#x68e;" arabic-form="final" 
d="M1229 1l-189 -1q-151 0 -226 174q-20 -51 -88.5 -94t-162.5 -43q-150 0 -209.5 49t-60.5 148q1 41 30.5 107t56.5 66q30 0 34 -73q4 -72 161 -72q110 1 154.5 23t44.5 78q0 86 -24 248.5t-40 196.5l172 229q15 -135 39 -500q1 -99 14 -230q33 -82 123 -82h171v-224z
M913 1526l-156 -154l-153 154l153 153zM1053 1249l-154 -157l-141 141l-154 -154l-153 154l156 156l138 -140l154 153z" />
    <glyph glyph-name="uniFB89" unicode="&#x688;" arabic-form="final" 
d="M1229 1l-189 -1q-151 0 -226 174q-20 -51 -88.5 -94t-162.5 -43q-150 0 -209.5 49t-60.5 148q1 41 30.5 107t56.5 66q30 0 34 -73q4 -72 161 -72q110 1 154.5 23t44.5 78q0 86 -24 248.5t-40 196.5l172 229q15 -135 39 -500q1 -99 14 -230q33 -82 123 -82h171v-224z
M1050 1230q0 -188 -258 -188h-231q-83 0 -109 114h112q48 45 48 121q0 254 -35 312l64 104l88 -90q-43 -50 -40 -171l2 -70q1 -28 -16 -125q139 170 244 170q131 0 131 -177zM970 1208q0 35 -22 62t-56 27q-38 0 -89 -39q-20 -15 -120 -102h199q88 0 88 52z" />
    <glyph glyph-name="uniFB8B" unicode="&#x698;" arabic-form="final" 
d="M1229 225v-225h-90q-65 0 -117.5 30.5t-69.5 77.5q-35 -226 -152.5 -377.5t-286.5 -151.5q-83 0 -247 67t-164 114q0 32 50 32q7 0 68 -14q61 -13 138 -13q167 0 335 142t168 245q0 193 -165 371l137 270q50 -90 84 -188t44.5 -206t46.5 -140.5t131 -33.5h90zM954 1362
l-156 -154l-153 154l153 153zM1094 1085l-154 -157l-141 141l-154 -154l-153 154l156 156l138 -140l154 153z" />
    <glyph glyph-name="uniFB8D" unicode="&#x691;" arabic-form="final" 
d="M1229 225v-225h-90q-65 0 -117.5 30.5t-69.5 77.5q-35 -226 -152.5 -377.5t-286.5 -151.5q-83 0 -247 67t-164 114q0 32 50 32q7 0 68 -14q61 -13 138 -13q167 0 335 142t168 245q0 193 -165 371l137 270q50 -90 84 -188t44.5 -206t46.5 -140.5t131 -33.5h90zM990 1100
q0 -188 -258 -188h-231q-83 0 -109 114h112q48 45 48 121q0 254 -35 312l64 104l88 -90q-43 -50 -40 -171l2 -70q1 -28 -16 -125q139 170 244 170q131 0 131 -177zM910 1078q0 35 -22 62t-56 27q-38 0 -89 -39q-20 -15 -120 -102h199q88 0 88 52z" />
    <glyph glyph-name="uniFB8F" unicode="&#x6a9;" arabic-form="final" 
d="M1210 1303l-100 -245q-157 -61 -291 -133.5t-134 -102.5q0 -27 26 -54q149 -135 261 -271q43 -68 109.5 -154.5t92 -102t55.5 -15.5v-225q-178 0 -272 200q-21 -123 -135 -166t-345 -43q-154 0 -271 12.5t-161.5 77t-44.5 178.5q0 82 62 217t130 135q28 0 28 -35
q0 -28 -37 -104q-36 -77 -36 -114q0 -74 55 -110.5t199 -36.5q233 0 354.5 10.5t121.5 39.5q0 81 -197 255q-198 173 -198 255q0 133 170.5 261.5t557.5 270.5z" />
    <glyph glyph-name="uniFB90" unicode="&#x6a9;" arabic-form="initial" 
d="M765 225q131 0 131 37q0 67 -115 168l-181 150q-78 64 -112 112t-34 84q0 123 165.5 245.5t609.5 285.5l-100 -245q-183 -71 -327.5 -141.5t-144.5 -93.5q0 -28 114 -120q133 -107 202 -204.5t69 -217.5q0 -173 -61 -229t-221 -56h-760v225h765z" />
    <glyph glyph-name="uniFB91" unicode="&#x6a9;" arabic-form="medial" 
d="M574 226q130 0 130 32q0 91 -220.5 256.5t-221.5 257.5q0 123 165.5 246t609.5 285l-100 -245q-472 -182 -472 -235q0 -17 10.5 -33.5t94.5 -91.5t218 -208q48 -67 153 -179q78 -60 125 -73t163 -13v-225q-227 0 -316 56.5t-128 143.5q-17 -89 -80.5 -144.5t-161.5 -55.5
h-543v225z" />
    <glyph glyph-name="uniFB93" unicode="&#x6af;" arabic-form="final" 
d="M1225 1357l-48 -132q-242 -81 -694 -326l33 142q358 185 709 316zM949 540q103 -95 209 -261q30 -49 71 -54v-225q-128 0 -224 200q-13 -76 -60 -125t-124 -69.5t-290 -20.5q-329 0 -430 65.5t-101 211.5q0 82 61.5 217t130.5 135q28 0 28 -35q0 -28 -37 -104
q-36 -77 -36 -114q0 -70 67 -107.5t314 -37.5q269 0 333 7.5t64 38.5q0 41 -43 91t-191 131q-132 72 -165 112.5t-33 78.5q0 79 45.5 135.5t241 151t448.5 189.5l-85 -207q-501 -175 -501 -210q0 -7 61 -38q188 -94 247 -158z" />
    <glyph glyph-name="uniFB94" unicode="&#x6af;" arabic-form="initial" 
d="M1228 1358l-48 -132q-241 -81 -694 -326l33 142q359 185 709 316zM1224 1150l-87 -207q-501 -176 -501 -210q0 -7 61 -38q123 -61 197 -114.5t106.5 -134.5t32.5 -194q0 -82 -28.5 -136.5t-93 -84.5t-268.5 -30l-643 -1v225h470q217 0 320.5 4t113.5 10t10 17
q0 39 -25 76t-55 58.5t-236 140.5q-111 71 -111 143q0 79 46 135.5t235 148t456 192.5z" />
    <glyph glyph-name="uniFB95" unicode="&#x6af;" arabic-form="medial" 
d="M1031 1362l-48 -132q-242 -80 -694 -326l33 142q358 186 709 316zM729 538v2q32 -30 105 -117q75 -91 128 -127.5t91 -53.5t176 -17v-225q-226 0 -315.5 56.5t-128.5 143.5q-17 -88 -80 -144t-162 -56h-543v225l574 1q130 0 130 32q0 43 -43.5 94.5t-189.5 131.5
q-135 74 -166.5 113.5t-31.5 77.5q0 79 45.5 135.5t236.5 149t455 191.5l-87 -207q-501 -175 -501 -210q0 -7 61 -38q187 -94 246 -158z" />
    <glyph glyph-name="uniFB97" unicode="&#x6b3;" arabic-form="final" 
d="M1225 1357l-48 -132q-242 -81 -694 -326l33 142q358 185 709 316zM949 540q103 -95 209 -261q30 -49 71 -54v-225q-128 0 -224 200q-13 -76 -60 -125t-124 -69.5t-290 -20.5q-329 0 -430 65.5t-101 211.5q0 82 61.5 217t130.5 135q28 0 28 -35q0 -28 -37 -104
q-36 -77 -36 -114q0 -70 67 -107.5t314 -37.5q269 0 333 7.5t64 38.5q0 41 -43 91t-191 131q-132 72 -165 112.5t-33 78.5q0 79 45.5 135.5t241 151t448.5 189.5l-85 -207q-501 -175 -501 -210q0 -7 61 -38q188 -94 247 -158zM648 -504l-111 -110l-109 110l99 100l-107 109
l109 110l111 -110l-102 -101z" />
    <glyph glyph-name="uniFB98" unicode="&#x6b3;" arabic-form="initial" 
d="M1228 1358l-48 -132q-241 -81 -694 -326l33 142q359 185 709 316zM1224 1150l-87 -207q-501 -176 -501 -210q0 -7 61 -38q123 -61 197 -114.5t106.5 -134.5t32.5 -194q0 -82 -28.5 -136.5t-93 -84.5t-268.5 -30l-643 -1v225h470q217 0 320.5 4t113.5 10t10 17
q0 39 -25 76t-55 58.5t-236 140.5q-111 71 -111 143q0 79 46 135.5t235 148t456 192.5zM928 -504l-111 -110l-109 110l99 100l-107 109l109 110l111 -110l-102 -101z" />
    <glyph glyph-name="uniFB99" unicode="&#x6b3;" arabic-form="medial" 
d="M1031 1362l-48 -132q-242 -80 -694 -326l33 142q358 186 709 316zM729 538v2q32 -30 105 -117q75 -91 128 -127.5t91 -53.5t176 -17v-225q-226 0 -315.5 56.5t-128.5 143.5q-17 -88 -80 -144t-162 -56h-543v225l574 1q130 0 130 32q0 43 -43.5 94.5t-189.5 131.5
q-135 74 -166.5 113.5t-31.5 77.5q0 79 45.5 135.5t236.5 149t455 191.5l-87 -207q-501 -175 -501 -210q0 -7 61 -38q187 -94 246 -158zM628 -504l-111 -110l-109 110l99 100l-107 109l109 110l111 -110l-102 -101z" />
    <glyph glyph-name="uniFB9B" unicode="&#x6b1;" arabic-form="final" 
d="M1225 1357l-48 -132q-242 -81 -694 -326l33 142q358 185 709 316zM949 540q103 -95 209 -261q30 -49 71 -54v-225q-128 0 -224 200q-13 -76 -60 -125t-124 -69.5t-290 -20.5q-329 0 -430 65.5t-101 211.5q0 82 61.5 217t130.5 135q28 0 28 -35q0 -28 -37 -104
q-36 -77 -36 -114q0 -70 67 -107.5t314 -37.5q269 0 333 7.5t64 38.5q0 41 -43 91t-191 131q-132 72 -165 112.5t-33 78.5q0 79 45.5 135.5t241 151t448.5 189.5l-85 -207q-501 -175 -501 -210q0 -7 61 -38q188 -94 247 -158zM1071 1430l-155 -157l-141 136l-153 -148
l-154 154l156 156l139 -141l154 154z" />
    <glyph glyph-name="uniFB9C" unicode="&#x6b1;" arabic-form="initial" 
d="M1228 1358l-48 -132q-241 -81 -694 -326l33 142q359 185 709 316zM1224 1150l-87 -207q-501 -176 -501 -210q0 -7 61 -38q123 -61 197 -114.5t106.5 -134.5t32.5 -194q0 -82 -28.5 -136.5t-93 -84.5t-268.5 -30l-643 -1v225h470q217 0 320.5 4t113.5 10t10 17
q0 39 -25 76t-55 58.5t-236 140.5q-111 71 -111 143q0 79 46 135.5t235 148t456 192.5zM1091 1430l-155 -157l-141 136l-153 -148l-154 154l156 156l139 -141l154 154z" />
    <glyph glyph-name="uniFB9D" unicode="&#x6b1;" arabic-form="medial" 
d="M1031 1362l-48 -132q-242 -80 -694 -326l33 142q358 186 709 316zM729 538v2q32 -30 105 -117q75 -91 128 -127.5t91 -53.5t176 -17v-225q-226 0 -315.5 56.5t-128.5 143.5q-17 -88 -80 -144t-162 -56h-543v225l574 1q130 0 130 32q0 43 -43.5 94.5t-189.5 131.5
q-135 74 -166.5 113.5t-31.5 77.5q0 79 45.5 135.5t236.5 149t455 191.5l-87 -207q-501 -175 -501 -210q0 -7 61 -38q187 -94 246 -158zM791 1430l-155 -157l-141 136l-153 -148l-154 154l156 156l139 -141l154 154z" />
    <glyph glyph-name="uniFB9F" unicode="&#x6ba;" arabic-form="final" 
d="M1229 225v-225q-58 0 -95 21t-63 70q-42 -522 -558 -522q-179 0 -303 105.5t-124 275.5q0 130 80.5 344t172.5 214q38 0 38 -41q0 -16 -58 -169q-59 -152 -59 -268q0 -82 84.5 -149.5t179.5 -67.5q155 0 279.5 52t124.5 150q0 155 -118 345l111 354q45 -70 83 -186.5
t48 -193.5q13 -109 177 -109z" />
    <glyph glyph-name="uniFBA1" unicode="&#x6bb;" arabic-form="final" 
d="M1229 225v-225q-58 0 -95 21t-63 70q-42 -522 -558 -522q-179 0 -303 105.5t-124 275.5q0 130 80.5 344t172.5 214q38 0 38 -41q0 -16 -58 -169q-59 -152 -59 -268q0 -82 84.5 -149.5t179.5 -67.5q155 0 279.5 52t124.5 150q0 155 -118 345l111 354q45 -70 83 -186.5
t48 -193.5q13 -109 177 -109zM910 1130q0 -188 -258 -188h-231q-83 0 -109 114h112q48 45 48 121q0 254 -35 312l64 104l88 -90q-43 -50 -40 -171l2 -70q1 -28 -16 -125q139 170 244 170q131 0 131 -177zM830 1108q0 35 -22 62t-56 27q-38 0 -89 -39q-20 -15 -120 -102h199
q88 0 88 52z" />
    <glyph glyph-name="uniFBA2" unicode="&#x6bb;" arabic-form="initial" 
d="M0 0v225h860q31 0 78.5 14.5t47.5 33.5q0 158 -113 282l117 289q103 -154 139.5 -252t36.5 -215q0 -108 -78 -242.5t-185 -134.5h-903zM1230 1130q0 -188 -258 -188h-231q-83 0 -109 114h112q48 45 48 121q0 254 -35 312l64 104l88 -90q-43 -50 -40 -171l2 -70
q1 -28 -16 -125q139 170 244 170q131 0 131 -177zM1150 1108q0 35 -22 62t-56 27q-38 0 -89 -39q-20 -15 -120 -102h199q88 0 88 52z" />
    <glyph glyph-name="uniFBA3" unicode="&#x6bb;" arabic-form="medial" 
d="M1229 0h-81q-186 0 -256 38.5t-126 152.5q-112 -191 -223 -191h-543v225h532q120 0 120 104q0 98 -66 255l153 269q84 -265 103 -452q6 -62 19 -87.5t36 -43.5t55 -29t56.5 -13.5t220.5 -2.5v-225zM990 1130q0 -188 -258 -188h-231q-83 0 -109 114h112q48 45 48 121
q0 254 -35 312l64 104l88 -90q-43 -50 -40 -171l2 -70q1 -28 -16 -125q139 170 244 170q131 0 131 -177zM910 1108q0 35 -22 62t-56 27q-38 0 -89 -39q-20 -15 -120 -102h199q88 0 88 52z" />
    <glyph glyph-name="uniFBA5" unicode="&#x6c0;" arabic-form="final" 
d="M1229 0h-277q-98 0 -148 51.5t-58 183.5l-41 -33q-165 5 -223.5 13t-110.5 25.5t-54 35t-2 28.5q0 116 70.5 186.5t335.5 148.5q-7 101 -38 169l172 229q13 -109 32.5 -399t19.5 -358q0 -55 46 -55h276v-225zM758 338l-9 138q-246 -69 -246 -119q0 -9 4 -13.5t59 -12.5
t139 -9q30 6 53 16zM623 1171l13 72q51 34 74 64q-95 30 -95 101q0 66 44.5 128t105.5 62q101 0 101 -89q0 -24 -20 -65q-81 59 -127 59q-32 0 -32 -29q0 -36 41.5 -63t86.5 -27q50 0 116 32v-114z" />
    <glyph glyph-name="uniFBA6" unicode="&#x6c1;" arabic-form="isolated" 
d="M561 574q-29 6 -38 6q-14 0 -29 -4q41 217 158 217q130 0 224.5 -118.5t94.5 -253.5q0 -179 -75.5 -300t-216.5 -121q-104 0 -161 69t-57 181q0 125 100 324zM666 543q-24 -19 -52 -75.5t-28 -80.5q0 -86 35.5 -137.5t96.5 -51.5q43 0 82.5 28t39.5 80q0 88 -35 143
t-139 94z" />
    <glyph glyph-name="uniFBA8" unicode="&#x6c1;" arabic-form="initial" 
d="M1166 377q0 -114 -74 -238q-83 -139 -189 -139h-903v225h860q28 0 72 13q54 15 54 35q0 158 -113 282l117 289q92 -137 127 -220q49 -117 49 -247zM1065 -146q0 -36 -35 -50q-91 -37 -94 -103q111 -2 111 -98q0 -97 -115 -97q-109 0 -109 108q0 90 57 175q63 94 150 94
q35 0 35 -29z" />
    <glyph glyph-name="uniFBA9" unicode="&#x6c1;" arabic-form="medial" 
d="M1229 0h-250q-94 0 -112 -146q-7 -61 -38 -61q-68 0 -99 140t-31 211q-16 -55 -67 -98q-55 -46 -119 -46h-513v225h497q143 0 177 127q23 86 56 165q43 101 105 101q19 0 19 -12q0 -5 -13 -34q-48 -107 -48 -246q0 -159 38 -256q11 66 58 110.5t108 44.5h232v-225z
M965 -266q0 -36 -35 -50q-91 -37 -94 -103q111 -2 111 -98q0 -97 -115 -97q-109 0 -109 108q0 90 57 175q63 94 150 94q35 0 35 -29z" />
    <glyph glyph-name="uniFBAB" unicode="&#x6be;" arabic-form="final" 
d="M1229 0h-277q-98 0 -148 51.5t-58 183.5l-41 -33q-165 5 -223.5 13t-110.5 25.5t-54 35t-2 28.5q0 116 70.5 186.5t335.5 148.5q-7 101 -38 169l172 229q13 -109 32.5 -399t19.5 -358q0 -55 46 -55h276v-225zM758 338l-9 138q-246 -69 -246 -119q0 -9 4 -13.5t59 -12.5
t139 -9q30 6 53 16z" />
    <glyph glyph-name="uniFBAD" unicode="&#x6be;" arabic-form="medial" 
d="M1229 0q-218 0 -358 -25q28 -36 28 -78q0 -106 -70.5 -214t-173.5 -108q-98 0 -156 95t-59 233l-114 -29q7 76 24 134q-55 -8 -137 -8h-213v225q452 0 470 22q102 186 225.5 344.5t190.5 158.5q130 0 130 -170q0 -294 -158 -378q75 23 174 23h197v-225zM603 232
q73 10 184 106.5t111 164.5q0 53 -37 53q-31 0 -60.5 -17t-58 -51t-42.5 -61t-97 -195zM572 32q-15 -69 -15 -123q0 -151 114 -151q101 0 101 103q0 47 -63 106t-137 65z" />
    <glyph glyph-name="uniFBAF" unicode="&#x6d2;" arabic-form="final" 
d="M1229 0h-215q-425 0 -661 -83q-93 -33 -126.5 -56.5t-33.5 -57.5q0 -55 103 -61q127 -7 225 -7h706q-37 -123 -58 -155q-47 -70 -149 -70h-707q-133 0 -183 92q-40 72 -40 233q0 152 193 244q307 146 692 146h254v-225z" />
    <glyph glyph-name="uniFBB1" unicode="&#x6d3;" arabic-form="final" 
d="M1229 0h-215q-425 0 -661 -83q-93 -33 -126.5 -56.5t-33.5 -57.5q0 -55 103 -61q127 -7 225 -7h706q-37 -123 -58 -155q-47 -70 -149 -70h-707q-133 0 -183 92q-40 72 -40 233q0 152 193 244q307 146 692 146h254v-225zM458 571l13 72q51 34 74 64q-95 30 -95 101
q0 66 44.5 128t105.5 62q101 0 101 -89q0 -24 -20 -65q-81 59 -127 59q-32 0 -32 -29q0 -36 41.5 -63t86.5 -27q50 0 116 32v-114z" />
    <glyph glyph-name="uniFBD4" unicode="&#x6ad;" arabic-form="final" 
d="M1102 1134q-49 -82 -49 -184q0 -99 11 -297q10 -198 10 -297q0 -52 40.5 -91t114.5 -40v-225q-149 0 -193 150q-40 -112 -136.5 -149t-349.5 -37q-337 0 -439.5 70.5t-102.5 201.5q0 55 31 131.5t63 76.5q34 0 34 -35q0 -9 -4 -34q-3 -25 -3 -36q0 -68 86.5 -104.5
t392.5 -36.5q332 0 332 100q0 176 -38 441t-95 342q31 68 119 216q70 -87 176 -163zM543 838q-9 -78 -39 -106q-12 13 -34 13q-18 0 -41 -12.5t-23 -30.5q0 -12 45 -17q84 -10 107.5 -33.5t23.5 -58.5q0 -42 -36 -105.5t-118 -64.5q-36 1 -93.5 12.5t-57.5 26.5q0 17 110 41
q111 24 111 37q0 3 -81 18t-81 70q0 52 49.5 143t101.5 91q40 0 56 -24zM996 1615l-78 -78l-78 78l78 78zM1067 1475l-78 -79l-71 71l-78 -78l-77 78l79 79l69 -71l78 78z" />
    <glyph glyph-name="uniFBD5" unicode="&#x6ad;" arabic-form="initial" 
d="M765 225q131 0 131 37q0 67 -115 168l-181 150q-78 64 -112 112t-34 84q0 123 165.5 245.5t609.5 285.5l-100 -245q-183 -71 -327.5 -141.5t-144.5 -93.5q0 -28 114 -120q133 -107 202 -204.5t69 -217.5q0 -173 -61 -229t-221 -56h-760v225h765zM836 1515l-78 -78l-78 78
l78 78zM907 1375l-78 -79l-71 71l-78 -78l-77 78l79 79l69 -71l78 78z" />
    <glyph glyph-name="uniFBD6" unicode="&#x6ad;" arabic-form="medial" 
d="M574 226q130 0 130 32q0 91 -220.5 256.5t-221.5 257.5q0 123 165.5 246t609.5 285l-100 -245q-472 -182 -472 -235q0 -17 10.5 -33.5t94.5 -91.5t218 -208q48 -67 153 -179q78 -60 125 -73t163 -13v-225q-227 0 -316 56.5t-128 143.5q-17 -89 -80.5 -144.5t-161.5 -55.5
h-543v225zM716 1515l-78 -78l-78 78l78 78zM787 1375l-78 -79l-71 71l-78 -78l-77 78l79 79l69 -71l78 78z" />
    <glyph glyph-name="uniFBD8" unicode="&#x6c7;" arabic-form="final" 
d="M1229 225v-225h-210q-43 -177 -152.5 -288.5t-256.5 -111.5q-61 0 -234 58t-173 99q0 34 59 34q18 0 68 -10q50 -11 109 -11q113 0 270.5 75t170.5 162q-57 -6 -65 -6q-146 0 -199.5 46t-53.5 138q0 132 76 318.5t178 186.5q94 0 151.5 -127t68.5 -338h193zM876 231
q0 79 -19.5 164t-52.5 85q-25 0 -53.5 -65.5t-28.5 -118.5q0 -47 16.5 -59t80.5 -12q33 0 57 6zM801 1130q-128 -144 -204 -144q-18 0 -43 12t-25 27q0 8 16 15q123 49 200 120q-92 67 -92 115q0 49 47 111.5t108 62.5q44 0 71 -32.5t27 -82.5q0 -52 -36 -112q50 -19 50 -65
v-59q-48 0 -119 32zM817 1243q15 18 15 54q0 71 -69 71q-31 0 -31 -48q0 -41 85 -77z" />
    <glyph glyph-name="uniFBDA" unicode="&#x6c6;" arabic-form="final" 
d="M1229 225v-225h-210q-43 -177 -152.5 -288.5t-256.5 -111.5q-61 0 -234 58t-173 99q0 34 59 34q18 0 68 -10q50 -11 109 -11q113 0 270.5 75t170.5 162q-57 -6 -65 -6q-146 0 -199.5 46t-53.5 138q0 132 76 318.5t178 186.5q94 0 151.5 -127t68.5 -338h193zM876 231
q0 79 -19.5 164t-52.5 85q-25 0 -53.5 -65.5t-28.5 -118.5q0 -47 16.5 -59t80.5 -12q33 0 57 6zM937 1159q-1 -3 -69 -98l-107 -149l-108 149q-67 93 -68 98q-4 19 38 29t52 -2q3 -3 48 -71q11 -17 38 -59l38 59q20 32 47 71q10 12 53 2q42 -10 38 -29z" />
    <glyph glyph-name="uniFBDC" unicode="&#x6c8;" arabic-form="final" 
d="M1229 225v-225h-210q-43 -177 -152.5 -288.5t-256.5 -111.5q-61 0 -234 58t-173 99q0 34 59 34q18 0 68 -10q50 -11 109 -11q113 0 270.5 75t170.5 162q-57 -6 -65 -6q-146 0 -199.5 46t-53.5 138q0 132 76 318.5t178 186.5q94 0 151.5 -127t68.5 -338h193zM876 231
q0 79 -19.5 164t-52.5 85q-25 0 -53.5 -65.5t-28.5 -118.5q0 -47 16.5 -59t80.5 -12q33 0 57 6zM731 974q0 71 -12 231q-15 191 -15 301l91 145l-3 -141q0 -94 4 -146q5 -81 5 -146q0 -45 -23 -137.5t-47 -106.5z" />
    <glyph glyph-name="uniFBDF" unicode="&#x6cb;" arabic-form="final" 
d="M1229 225v-225h-210q-43 -177 -152.5 -288.5t-256.5 -111.5q-61 0 -234 58t-173 99q0 34 59 34q18 0 68 -10q50 -11 109 -11q113 0 270.5 75t170.5 162q-57 -6 -65 -6q-146 0 -199.5 46t-53.5 138q0 132 76 318.5t178 186.5q94 0 151.5 -127t68.5 -338h193zM876 231
q0 79 -19.5 164t-52.5 85q-25 0 -53.5 -65.5t-28.5 -118.5q0 -47 16.5 -59t80.5 -12q33 0 57 6zM893 1426l-156 -154l-153 154l153 153zM1033 1149l-154 -157l-141 141l-154 -154l-153 154l156 156l138 -140l154 153z" />
    <glyph glyph-name="uniFBE1" unicode="&#x6c5;" arabic-form="final" 
d="M1229 0h-210q-40 -166 -138 -274q-114 -126 -271 -126q-64 0 -228 55q-179 60 -179 102q0 34 59 34q27 0 86 -10.5t91 -10.5q113 0 274 77q-33 -7 -62 -7q-23 0 -84.5 30t-91.5 30q-33 0 -69.5 -30t-38.5 -30q-4 2 -4 12q0 59 44.5 99t104.5 40q24 0 97.5 -28.5
t116.5 -28.5q70 0 136 26q14 23 18 47q-57 -6 -65 -6q-121 0 -177 32q-76 42 -76 152q0 130 67 300q80 205 187 205q116 0 175 -186q37 -117 45 -279h193v-225zM876 231q0 66 -14 140q-20 109 -58 109q-30 0 -58 -77q-24 -67 -24 -107q0 -50 24 -63q15 -8 73 -8q33 0 57 6z
" />
    <glyph glyph-name="uniFBE3" unicode="&#x6c9;" arabic-form="final" 
d="M1229 225v-225h-210q-43 -177 -152.5 -288.5t-256.5 -111.5q-61 0 -234 58t-173 99q0 34 59 34q18 0 68 -10q50 -11 109 -11q113 0 270.5 75t170.5 162q-57 -6 -65 -6q-146 0 -199.5 46t-53.5 138q0 132 76 318.5t178 186.5q94 0 151.5 -127t68.5 -338h193zM876 231
q0 79 -19.5 164t-52.5 85q-25 0 -53.5 -65.5t-28.5 -118.5q0 -47 16.5 -59t80.5 -12q33 0 57 6zM957 946q4 -19 -38 -29q-43 -10 -51 3q-13 14 -49 70q-11 17 -38 59q-13 -20 -38 -59q-21 -32 -48 -71q-10 -12 -52 -2t-38 29q1 5 68 98l108 149l107 -149q34 -46 69 -98z" />
    <glyph glyph-name="uniFBE5" unicode="&#x6d0;" arabic-form="final" 
d="M1229 0q-67 0 -134 6q-16 1 -93 13q-67 10 -88 10q-131 0 -131 -27q0 -20 111 -40q141 -26 141 -84q0 -33 -37 -79t-76 -66q-150 -80 -356 -80q-216 0 -373 105q-96 64 -96 162q0 47 50 159q56 125 104 125q40 0 40 -49q0 -27 -32 -86t-32 -111q0 -46 67 -77
q75 -34 239 -39q22 0 117 1q58 2 106.5 8t103.5 14q45 8 45 22q0 9 -20 13q-59 15 -76 20q-147 45 -147 92q0 41 9 58q11 22 58 64q104 91 262 91h238v-225zM638 -551l-81 -60l-79 60l69 50l-77 59l79 60l81 -60l-72 -51z" />
    <glyph glyph-name="uniFBE6" unicode="&#x6d0;" arabic-form="initial" 
d="M0 0v225h860q31 0 78.5 14.5t47.5 33.5q0 158 -113 282l117 289q103 -154 139.5 -252t36.5 -215q0 -108 -78 -242.5t-185 -134.5h-903zM1088 -504l-111 -110l-109 110l99 100l-107 109l109 110l111 -110l-102 -101z" />
    <glyph glyph-name="uniFBE7" unicode="&#x6d0;" arabic-form="medial" 
d="M1229 0h-81q-186 0 -256 38.5t-126 152.5q-112 -191 -223 -191h-543v225h532q120 0 120 104q0 98 -66 255l153 269q84 -265 103 -452q6 -62 19 -87.5t36 -43.5t55 -29t56.5 -13.5t220.5 -2.5v-225zM888 -504l-111 -110l-109 110l99 100l-107 109l109 110l111 -110
l-102 -101z" />
    <glyph glyph-name="uniFBE8" unicode="&#x649;" arabic-form="initial" 
d="M0 0v225h860q31 0 78.5 14.5t47.5 33.5q0 158 -113 282l117 289q103 -154 139.5 -252t36.5 -215q0 -108 -78 -242.5t-185 -134.5h-903z" />
    <glyph glyph-name="uniFBE9" unicode="&#x649;" arabic-form="medial" 
d="M1229 0h-81q-186 0 -256 38.5t-126 152.5q-112 -191 -223 -191h-543v225h532q120 0 120 104q0 98 -66 255l153 269q84 -265 103 -452q6 -62 19 -87.5t36 -43.5t55 -29t56.5 -13.5t220.5 -2.5v-225z" />
    <glyph glyph-name="uniFBEA" unicode="&#xfbea;" arabic-form="isolated" 
d="M903 0h-354q-139 0 -200 23q-60 24 -90 113.5t-30 250.5q0 66 6 155q6 88 6 119q0 194 -36 352l157 205q61 -213 61 -454q0 -36 -1.5 -84t-5.5 -108q-4 -61 -5.5 -114t-1.5 -99q0 -77 11 -107q10 -27 52 -27h388q30 0 78 14q48 15 48 34q0 157 -113 282l117 289
q102 -153 139 -252q37 -96 37 -215q0 -108 -78 -243q-78 -134 -185 -134zM663 906l13 72q53 36 74 64q-95 30 -95 101q0 66 44 128q45 62 106 62q101 0 101 -89q0 -23 -20 -65q-82 59 -127 59q-32 0 -32 -29q0 -36 41 -63q42 -27 87 -27q49 0 116 32v-114z" />
    <glyph glyph-name="uniFBEB" unicode="&#xfbeb;" arabic-form="final" 
d="M1229 0h-35q-57 0 -94 11t-58 30q-22 20 -43 56.5t-38 93.5q-113 -191 -223 -191h-235q-139 0 -200 23q-60 24 -90 113.5t-30 250.5q0 66 6 155q6 88 6 119q0 194 -36 352l157 205q61 -213 61 -454q0 -36 -1.5 -84t-5.5 -108q-4 -61 -5.5 -114t-1.5 -99q0 -77 11 -107
q10 -27 52 -27h301q120 0 120 104q0 97 -66 255l153 269q83 -264 103 -452q6 -64 19 -88q10 -25 27 -43q15 -17 41 -31t63 -14h42v-225zM626 906l13 72q53 36 74 64q-95 30 -95 101q0 66 44 128q45 62 106 62q101 0 101 -89q0 -23 -20 -65q-82 59 -127 59q-32 0 -32 -29
q0 -36 41 -63q42 -27 87 -27q49 0 116 32v-114z" />
    <glyph glyph-name="uniFBEC" unicode="&#xfbec;" arabic-form="isolated" 
d="M933 0h-289q-99 0 -148 51q-51 54 -58 184l-41 -33q-83 2 -139 5.5t-85 7.5t-56.5 10.5t-53.5 14.5q-52 18 -54 35q-1 9 -1.5 16.5t-0.5 12.5q0 116 70 186q71 71 336 149q-4 51 -13 93t-25 76l172 229q7 -55 14.5 -154t17.5 -245t15 -235t5 -123q0 -55 46 -55h245
q30 0 78 14q48 15 48 34q0 157 -113 282l117 289q102 -153 139 -252q37 -96 37 -215q0 -108 -78 -243q-78 -134 -185 -134zM753 906l13 72q53 36 74 64q-95 30 -95 101q0 66 44 128q45 62 106 62q101 0 101 -89q0 -23 -20 -65q-82 59 -127 59q-32 0 -32 -29q0 -36 41 -63
q42 -27 87 -27q49 0 116 32v-114zM433 338l-9 138q-229 -69 -229 -119q0 -10 4 -14q2 -2 17.5 -5.5t41.5 -6.5t53 -6t69 -3q15 3 28.5 7t24.5 9z" />
    <glyph glyph-name="uniFBED" unicode="&#xfbed;" arabic-form="final" 
d="M1229 0h-10q-46 0 -73.5 11t-44.5 30q-17 20 -34 56.5t-31 93.5q-101 -191 -200 -191h-192q-99 0 -148 51q-51 54 -58 184l-41 -33q-83 2 -139 5.5t-85 7.5t-56.5 10.5t-53.5 14.5q-52 18 -54 35q-1 9 -1.5 16.5t-0.5 12.5q0 116 70 186q71 71 336 149q-4 51 -13 93
t-25 76l172 229q7 -55 14.5 -154t17.5 -245t15 -235t5 -123q0 -55 46 -55h181q108 0 108 104q0 97 -60 255l138 269q75 -266 93 -452q2 -35 10 -69.5t26 -61.5q11 -17 30.5 -31t45.5 -14h12v-225zM730 906l13 72q53 36 74 64q-95 30 -95 101q0 66 44 128q45 62 106 62
q101 0 101 -89q0 -23 -20 -65q-82 59 -127 59q-32 0 -32 -29q0 -36 41 -63q42 -27 87 -27q49 0 116 32v-114zM435 338l-9 138q-231 -69 -231 -119q0 -10 4 -14q2 -2 17.5 -5.5t41.5 -6.5t54 -6t70 -3q15 3 28.5 7t24.5 9z" />
    <glyph glyph-name="uniFBEE" unicode="&#xfbee;" arabic-form="isolated" 
d="M656 0q-33 -177 -117 -288q-85 -112 -204 -112q-50 0 -187 58q-139 58 -139 99q0 34 45 34q16 0 52 -10q39 -11 83 -11q85 0 205 75q119 75 130 162q-54 -6 -61 -6q-138 0 -187 46q-50 47 -50 138q0 132 72 318q72 187 168 187q88 0 142 -127q28 -64 44 -148t21 -190h217
q30 0 78 14q48 15 48 34q0 157 -113 282l117 289q102 -153 139 -252q37 -96 37 -215q0 -108 -78 -243q-78 -134 -185 -134h-277zM773 906l13 72q53 36 74 64q-95 30 -95 101q0 66 44 128q45 62 106 62q101 0 101 -89q0 -23 -20 -65q-82 59 -127 59q-32 0 -32 -29
q0 -36 41 -63q42 -27 87 -27q49 0 116 32v-114zM526 231q0 40 -5 80.5t-14 83.5q-19 85 -51 85q-25 0 -52 -66q-27 -65 -27 -118q0 -47 15 -59q16 -12 79 -12q32 0 55 6z" />
    <glyph glyph-name="uniFBEF" unicode="&#xfbef;" arabic-form="final" 
d="M1229 0h-10q-46 0 -73.5 11t-44.5 30q-17 20 -34 56.5t-31 93.5q-101 -191 -200 -191h-180q-33 -177 -117 -288q-85 -112 -204 -112q-50 0 -187 58q-139 58 -139 99q0 34 45 34q16 0 52 -10q39 -11 83 -11q85 0 205 75q119 75 130 162q-54 -6 -61 -6q-138 0 -187 46
q-50 47 -50 138q0 132 72 318q72 187 168 187q88 0 142 -127q28 -64 44 -148t21 -190h153q108 0 108 104q0 97 -60 255l138 269q75 -266 93 -452q2 -35 10 -69.5t26 -61.5q11 -17 30.5 -31t45.5 -14h12v-225zM750 906l13 72q53 36 74 64q-95 30 -95 101q0 66 44 128
q45 62 106 62q101 0 101 -89q0 -23 -20 -65q-82 59 -127 59q-32 0 -32 -29q0 -36 41 -63q42 -27 87 -27q49 0 116 32v-114zM526 231q0 40 -5 80.5t-14 83.5q-19 85 -51 85q-25 0 -52 -66q-27 -65 -27 -118q0 -47 15 -59q16 -12 79 -12q32 0 55 6z" />
    <glyph glyph-name="uniFBF0" unicode="&#xfbf0;" arabic-form="isolated" 
d="M656 0q-33 -177 -117 -288q-85 -112 -204 -112q-50 0 -187 58q-139 58 -139 99q0 34 45 34q16 0 52 -10q39 -11 83 -11q85 0 205 75q119 75 130 162q-54 -6 -61 -6q-138 0 -187 46q-50 47 -50 138q0 132 72 318q72 187 168 187q88 0 142 -127q28 -64 44 -148t21 -190h217
q30 0 78 14q48 15 48 34q0 157 -113 282l117 289q102 -153 139 -252q37 -96 37 -215q0 -108 -78 -243q-78 -134 -185 -134h-277zM773 906l13 72q53 36 74 64q-95 30 -95 101q0 66 44 128q45 62 106 62q101 0 101 -89q0 -23 -20 -65q-82 59 -127 59q-32 0 -32 -29
q0 -36 41 -63q42 -27 87 -27q49 0 116 32v-114zM526 231q0 40 -5 80.5t-14 83.5q-19 85 -51 85q-25 0 -52 -66q-27 -65 -27 -118q0 -47 15 -59q16 -12 79 -12q32 0 55 6zM480 1008q-128 -144 -204 -144q-18 0 -43 12t-25 27q0 8 16 15q123 49 200 120q-92 67 -92 115
q0 49 47 111.5t108 62.5q44 0 71 -32.5t27 -82.5q0 -52 -36 -112q50 -19 50 -65v-59q-48 0 -119 32zM496 1121q15 18 15 54q0 71 -69 71q-31 0 -31 -48q0 -41 85 -77z" />
    <glyph glyph-name="uniFBF1" unicode="&#xfbf1;" arabic-form="final" 
d="M1229 0h-10q-46 0 -73.5 11t-44.5 30q-17 20 -34 56.5t-31 93.5q-101 -191 -200 -191h-180q-33 -177 -117 -288q-85 -112 -204 -112q-50 0 -187 58q-139 58 -139 99q0 34 45 34q16 0 52 -10q39 -11 83 -11q85 0 205 75q119 75 130 162q-54 -6 -61 -6q-138 0 -187 46
q-50 47 -50 138q0 132 72 318q72 187 168 187q88 0 142 -127q28 -64 44 -148t21 -190h153q108 0 108 104q0 97 -60 255l138 269q75 -266 93 -452q2 -35 10 -69.5t26 -61.5q11 -17 30.5 -31t45.5 -14h12v-225zM750 906l13 72q53 36 74 64q-95 30 -95 101q0 66 44 128
q45 62 106 62q101 0 101 -89q0 -23 -20 -65q-82 59 -127 59q-32 0 -32 -29q0 -36 41 -63q42 -27 87 -27q49 0 116 32v-114zM526 231q0 40 -5 80.5t-14 83.5q-19 85 -51 85q-25 0 -52 -66q-27 -65 -27 -118q0 -47 15 -59q16 -12 79 -12q32 0 55 6zM480 1008
q-128 -144 -204 -144q-18 0 -43 12t-25 27q0 8 16 15q123 49 200 120q-92 67 -92 115q0 49 47 111.5t108 62.5q44 0 71 -32.5t27 -82.5q0 -52 -36 -112q50 -19 50 -65v-59q-48 0 -119 32zM496 1121q15 18 15 54q0 71 -69 71q-31 0 -31 -48q0 -41 85 -77z" />
    <glyph glyph-name="uniFBF2" unicode="&#xfbf2;" arabic-form="isolated" 
d="M656 0q-33 -177 -117 -288q-85 -112 -204 -112q-50 0 -187 58q-139 58 -139 99q0 34 45 34q16 0 52 -10q39 -11 83 -11q85 0 205 75q119 75 130 162q-54 -6 -61 -6q-138 0 -187 46q-50 47 -50 138q0 132 72 318q72 187 168 187q88 0 142 -127q28 -64 44 -148t21 -190h217
q30 0 78 14q48 15 48 34q0 157 -113 282l117 289q102 -153 139 -252q37 -96 37 -215q0 -108 -78 -243q-78 -134 -185 -134h-277zM773 906l13 72q53 36 74 64q-95 30 -95 101q0 66 44 128q45 62 106 62q101 0 101 -89q0 -23 -20 -65q-82 59 -127 59q-32 0 -32 -29
q0 -36 41 -63q42 -27 87 -27q49 0 116 32v-114zM526 231q0 40 -5 80.5t-14 83.5q-19 85 -51 85q-25 0 -52 -66q-27 -65 -27 -118q0 -47 15 -59q16 -12 79 -12q32 0 55 6zM597 1173q-1 -3 -69 -98l-107 -149l-108 149q-67 93 -68 98q-4 19 38 29t52 -2q3 -3 48 -71
q11 -17 38 -59l38 59q20 32 47 71q10 12 53 2q42 -10 38 -29z" />
    <glyph glyph-name="uniFBF3" unicode="&#xfbf3;" arabic-form="final" 
d="M1229 0h-10q-46 0 -73.5 11t-44.5 30q-17 20 -34 56.5t-31 93.5q-101 -191 -200 -191h-180q-33 -177 -117 -288q-85 -112 -204 -112q-50 0 -187 58q-139 58 -139 99q0 34 45 34q16 0 52 -10q39 -11 83 -11q85 0 205 75q119 75 130 162q-54 -6 -61 -6q-138 0 -187 46
q-50 47 -50 138q0 132 72 318q72 187 168 187q88 0 142 -127q28 -64 44 -148t21 -190h153q108 0 108 104q0 97 -60 255l138 269q75 -266 93 -452q2 -35 10 -69.5t26 -61.5q11 -17 30.5 -31t45.5 -14h12v-225zM750 906l13 72q53 36 74 64q-95 30 -95 101q0 66 44 128
q45 62 106 62q101 0 101 -89q0 -23 -20 -65q-82 59 -127 59q-32 0 -32 -29q0 -36 41 -63q42 -27 87 -27q49 0 116 32v-114zM526 231q0 40 -5 80.5t-14 83.5q-19 85 -51 85q-25 0 -52 -66q-27 -65 -27 -118q0 -47 15 -59q16 -12 79 -12q32 0 55 6zM597 1173q-1 -3 -69 -98
l-107 -149l-108 149q-67 93 -68 98q-4 19 38 29t52 -2q3 -3 48 -71q11 -17 38 -59l38 59q20 32 47 71q10 12 53 2q42 -10 38 -29z" />
    <glyph glyph-name="uniFBF4" unicode="&#xfbf4;" arabic-form="isolated" 
d="M656 0q-33 -177 -117 -288q-85 -112 -204 -112q-50 0 -187 58q-139 58 -139 99q0 34 45 34q16 0 52 -10q39 -11 83 -11q85 0 205 75q119 75 130 162q-54 -6 -61 -6q-138 0 -187 46q-50 47 -50 138q0 132 72 318q72 187 168 187q88 0 142 -127q28 -64 44 -148t21 -190h217
q30 0 78 14q48 15 48 34q0 157 -113 282l117 289q102 -153 139 -252q37 -96 37 -215q0 -108 -78 -243q-78 -134 -185 -134h-277zM773 906l13 72q53 36 74 64q-95 30 -95 101q0 66 44 128q45 62 106 62q101 0 101 -89q0 -23 -20 -65q-82 59 -127 59q-32 0 -32 -29
q0 -36 41 -63q42 -27 87 -27q49 0 116 32v-114zM526 231q0 40 -5 80.5t-14 83.5q-19 85 -51 85q-25 0 -52 -66q-27 -65 -27 -118q0 -47 15 -59q16 -12 79 -12q32 0 55 6zM389 823q0 71 -12 231q-15 191 -15 301l91 145l-3 -141q0 -94 4 -146q5 -81 5 -146q0 -45 -23 -137.5
t-47 -106.5z" />
    <glyph glyph-name="uniFBF5" unicode="&#xfbf5;" arabic-form="final" 
d="M1229 0h-10q-46 0 -73.5 11t-44.5 30q-17 20 -34 56.5t-31 93.5q-101 -191 -200 -191h-180q-33 -177 -117 -288q-85 -112 -204 -112q-50 0 -187 58q-139 58 -139 99q0 34 45 34q16 0 52 -10q39 -11 83 -11q85 0 205 75q119 75 130 162q-54 -6 -61 -6q-138 0 -187 46
q-50 47 -50 138q0 132 72 318q72 187 168 187q88 0 142 -127q28 -64 44 -148t21 -190h153q108 0 108 104q0 97 -60 255l138 269q75 -266 93 -452q2 -35 10 -69.5t26 -61.5q11 -17 30.5 -31t45.5 -14h12v-225zM750 906l13 72q53 36 74 64q-95 30 -95 101q0 66 44 128
q45 62 106 62q101 0 101 -89q0 -23 -20 -65q-82 59 -127 59q-32 0 -32 -29q0 -36 41 -63q42 -27 87 -27q49 0 116 32v-114zM526 231q0 40 -5 80.5t-14 83.5q-19 85 -51 85q-25 0 -52 -66q-27 -65 -27 -118q0 -47 15 -59q16 -12 79 -12q32 0 55 6zM389 823q0 71 -12 231
q-15 191 -15 301l91 145l-3 -141q0 -94 4 -146q5 -81 5 -146q0 -45 -23 -137.5t-47 -106.5z" />
    <glyph glyph-name="uniFBF6" unicode="&#xfbf6;" arabic-form="isolated" 
d="M598 45q16 70 48 174q182 42 182 75q0 47 -24 91q-23 41 -119 116l108 280q49 -50 83 -96t53 -91q38 -88 38 -210q0 -91 -49 -171q73 -7 139 -55q64 -46 64 -96q0 -195 -183 -310q-182 -115 -413 -115q-421 0 -421 404q0 90 67 231q67 144 115 144q34 0 34 -38
q0 -30 -33 -121q-33 -92 -33 -142q0 -62 18.5 -106.5t58 -74t102 -43.5t150.5 -14q120 0 250 23q128 23 128 63q0 33 -120 56q-60 12 -120.5 18.5t-122.5 7.5zM512 781l13 72q53 36 74 64q-95 30 -95 101q0 66 44 128q45 62 106 62q101 0 101 -89q0 -23 -20 -65
q-82 59 -127 59q-32 0 -32 -29q0 -36 41 -63q42 -27 87 -27q49 0 116 32v-114zM702 -544l-81 -60l-79 60l69 50l-77 59l79 60l81 -60l-72 -51z" />
    <glyph glyph-name="uniFBF7" unicode="&#xfbf7;" arabic-form="final" 
d="M1229 0h-81q-62 0 -101 19q-40 19 -90 101q-68 113 -120 113q-66 0 -148 -45q-83 -44 -83 -89q0 -15 121 -31q126 -16 192 -61q65 -44 65 -148q0 -50 -67 -151q-33 -60 -80 -102.5t-110 -67.5q-126 -50 -289 -50q-219 0 -327 77t-108 225q0 29 15.5 81t47.5 131
q65 158 115 158q25 0 34.5 -7t9.5 -38q0 -33 -33 -121q-34 -89 -34 -136q0 -80 69 -117q71 -38 236 -38q78 0 145.5 4.5t127.5 15.5q119 20 117 58q0 16 -12 30q-12 11 -28 16q-8 2 -29.5 5.5t-58.5 8.5q-60 9 -104 20.5t-73 29t-43.5 42.5t-14.5 60q0 158 116 298
q117 141 271 141q53 0 112 -96q46 -73 71 -93q23 -19 90 -19h79v-224zM590 515l13 72q53 36 74 64q-95 30 -95 101q0 66 44 128q45 62 106 62q101 0 101 -89q0 -23 -20 -65q-82 59 -127 59q-32 0 -32 -29q0 -36 41 -63q42 -27 87 -27q49 0 116 32v-114zM678 -709l-81 -60
l-79 60l69 50l-77 59l79 60l81 -60l-72 -51z" />
    <glyph glyph-name="uniFBF8" unicode="&#xfbf8;" arabic-form="initial" 
d="M903 0h-396q-46 0 -73.5 11t-44.5 30q-17 20 -34 56.5t-31 93.5q-101 -191 -200 -191h-124v225h114q108 0 108 104q0 97 -60 255l138 269q75 -266 93 -452q2 -35 10 -69.5t26 -61.5q11 -17 30.5 -31t45.5 -14h355q30 0 78 14q48 15 48 34q0 157 -113 282l117 289
q102 -153 139 -252q37 -96 37 -215q0 -108 -78 -243q-78 -134 -185 -134zM663 906l13 72q53 36 74 64q-95 30 -95 101q0 66 44 128q45 62 106 62q101 0 101 -89q0 -23 -20 -65q-82 59 -127 59q-32 0 -32 -29q0 -36 41 -63q42 -27 87 -27q49 0 116 32v-114zM576 -504
l-111 -110l-109 110l99 100l-107 109l109 110l111 -110l-102 -101z" />
    <glyph glyph-name="uniFBF9" unicode="&#xfbf9;" arabic-form="isolated" 
d="M598 45q16 70 48 174q182 42 182 75q0 47 -24 91q-23 41 -119 116l108 280q49 -50 83 -96t53 -91q38 -88 38 -210q0 -91 -49 -171q73 -7 139 -55q64 -46 64 -96q0 -195 -183 -310q-182 -115 -413 -115q-421 0 -421 404q0 90 67 231q67 144 115 144q34 0 34 -38
q0 -30 -33 -121q-33 -92 -33 -142q0 -62 18.5 -106.5t58 -74t102 -43.5t150.5 -14q120 0 250 23q128 23 128 63q0 33 -120 56q-60 12 -120.5 18.5t-122.5 7.5zM512 781l13 72q53 36 74 64q-95 30 -95 101q0 66 44 128q45 62 106 62q101 0 101 -89q0 -23 -20 -65
q-82 59 -127 59q-32 0 -32 -29q0 -36 41 -63q42 -27 87 -27q49 0 116 32v-114z" />
    <glyph glyph-name="uniFBFA" unicode="&#xfbfa;" arabic-form="final" 
d="M1229 0h-81q-62 0 -101 19q-40 19 -90 101q-68 113 -120 113q-66 0 -148 -45q-83 -44 -83 -89q0 -15 121 -31q126 -16 192 -61q65 -44 65 -148q0 -50 -67 -151q-33 -60 -80 -102.5t-110 -67.5q-126 -50 -289 -50q-219 0 -327 77t-108 225q0 29 15.5 81t47.5 131
q65 158 115 158q25 0 34.5 -7t9.5 -38q0 -33 -33 -121q-34 -89 -34 -136q0 -80 69 -117q71 -38 236 -38q78 0 145.5 4.5t127.5 15.5q119 20 117 58q0 16 -12 30q-12 11 -28 16q-8 2 -29.5 5.5t-58.5 8.5q-60 9 -104 20.5t-73 29t-43.5 42.5t-14.5 60q0 158 116 298
q117 141 271 141q53 0 112 -96q46 -73 71 -93q23 -19 90 -19h79v-224zM590 515l13 72q53 36 74 64q-95 30 -95 101q0 66 44 128q45 62 106 62q101 0 101 -89q0 -23 -20 -65q-82 59 -127 59q-32 0 -32 -29q0 -36 41 -63q42 -27 87 -27q49 0 116 32v-114z" />
    <glyph glyph-name="uniFBFB" unicode="&#xfbfb;" arabic-form="initial" 
d="M903 0h-396q-46 0 -73.5 11t-44.5 30q-17 20 -34 56.5t-31 93.5q-101 -191 -200 -191h-124v225h114q108 0 108 104q0 97 -60 255l138 269q75 -266 93 -452q2 -35 10 -69.5t26 -61.5q11 -17 30.5 -31t45.5 -14h355q30 0 78 14q48 15 48 34q0 157 -113 282l117 289
q102 -153 139 -252q37 -96 37 -215q0 -108 -78 -243q-78 -134 -185 -134zM663 906l13 72q53 36 74 64q-95 30 -95 101q0 66 44 128q45 62 106 62q101 0 101 -89q0 -23 -20 -65q-82 59 -127 59q-32 0 -32 -29q0 -36 41 -63q42 -27 87 -27q49 0 116 32v-114z" />
    <glyph glyph-name="uniFBFD" unicode="&#x6cc;" arabic-form="final" 
d="M1229 0q-67 0 -134 6t-125 6q-161 0 -186 -10q6 -21 110 -40q166 -31 166 -109q0 -196 -171.5 -310t-397.5 -114q-430 0 -430 400q0 60 70.5 217.5t120.5 157.5q23 0 31.5 -10t8.5 -39q0 -28 -40 -113t-40 -138q0 -227 316 -227q123 0 254 20t131 53q0 23 -116 43
q-151 26 -151 115q0 143 99 230t246 87h238v-225z" />
    <glyph glyph-name="uniFBFE" unicode="&#x6cc;" arabic-form="initial" 
d="M0 0v225h860q31 0 78.5 14.5t47.5 33.5q0 158 -113 282l117 289q103 -154 139.5 -252t36.5 -215q0 -108 -78 -242.5t-185 -134.5h-903zM1177 -418l-155 -157l-141 136l-153 -148l-154 154l156 156l139 -141l154 154z" />
    <glyph glyph-name="uniFBFF" unicode="&#x6cc;" arabic-form="medial" 
d="M1229 0h-81q-186 0 -256 38.5t-126 152.5q-112 -191 -223 -191h-543v225h532q120 0 120 104q0 98 -66 255l153 269q84 -265 103 -452q6 -62 19 -87.5t36 -43.5t55 -29t56.5 -13.5t220.5 -2.5v-225zM1090 -436l-155 -157l-141 136l-153 -148l-154 154l156 156l139 -141
l154 154z" />
    <glyph glyph-name="uniFC08" unicode="&#xfc08;" arabic-form="isolated" 
d="M1007 426q-36 81 -71 113q-42 38 -115 38q-153 0 -307 -117q174 -62 334 -220l-79 -210q-160 102 -220 102q-174 0 -174 -119q0 -38 43.5 -193.5t49.5 -242.5l-154 -188q-3 167 -50 298l-60 152q-35 97 -35 155q0 120 70.5 185t185.5 65q-54 22 -144 72q28 178 255 335
q216 151 407 151q84 0 135 -58.5t51 -148.5q0 -114 -122 -169zM1077 -292l-153 -154l-154 154l154 153z" />
    <glyph glyph-name="uniFC09" unicode="&#xfc09;" arabic-form="isolated" 
d="M598 45q16 71 48 174q182 42 182 75q0 48 -24 91t-119 116l108 280q98 -99 136 -186.5t38 -210.5q0 -90 -49 -171q75 -8 139 -55t64 -96q0 -195 -183 -310t-413 -115q-421 0 -421 404q0 88 67.5 231.5t114.5 143.5q34 0 34 -38q0 -29 -33 -121t-33 -142
q0 -123 76.5 -180.5t252.5 -57.5q122 0 250 23t128 63q0 33 -120 56.5t-243 25.5zM1111 -461l-153 -154l-154 154l154 153z" />
    <glyph glyph-name="uniFC0E" unicode="&#xfc0e;" arabic-form="isolated" 
d="M1007 426q-36 81 -71 113q-42 38 -115 38q-153 0 -307 -117q174 -62 334 -220l-79 -210q-160 102 -220 102q-174 0 -174 -119q0 -38 43.5 -193.5t49.5 -242.5l-154 -188q-3 167 -50 298l-60 152q-35 97 -35 155q0 120 70.5 185t185.5 65q-54 22 -144 72q28 178 255 335
q216 151 407 151q84 0 135 -58.5t51 -148.5q0 -114 -122 -169zM1225 1113l-155 -157l-141 136l-153 -148l-154 154l156 156l139 -141l154 154z" />
    <glyph glyph-name="uniFC12" unicode="&#xfc12;" arabic-form="isolated" 
d="M1007 426q-36 81 -71 113q-42 38 -115 38q-153 0 -307 -117q174 -62 334 -220l-79 -210q-160 102 -220 102q-174 0 -174 -119q0 -38 43.5 -193.5t49.5 -242.5l-154 -188q-3 167 -50 298l-60 152q-35 97 -35 155q0 120 70.5 185t185.5 65q-54 22 -144 72q28 178 255 335
q216 151 407 151q84 0 135 -58.5t51 -148.5q0 -114 -122 -169zM1084 1391l-156 -154l-153 154l153 153zM1224 1114l-154 -157l-141 141l-154 -154l-153 154l156 156l138 -140l154 153z" />
    <glyph glyph-name="uniFC31" unicode="&#xfc31;" arabic-form="isolated" 
d="M591 36q22 65 65 168q215 0 242 94q-82 -28 -131 -28q-73 0 -141.5 35t-68.5 88q0 129 71.5 274t173.5 145q103 0 166 -127.5t63 -313.5q0 -100 -45 -182q132 -38 132 -139q0 -188 -180 -301t-405 -113q-430 0 -430 400q0 85 63.5 215.5t113.5 130.5q47 0 47 -54
q0 -13 -31 -88t-31 -127q0 -244 303 -244q147 0 268.5 26t121.5 66q0 36 -115.5 55.5t-251.5 19.5zM858 470q-8 52 -35.5 100t-57.5 48q-39 0 -62.5 -53t-23.5 -104q0 -21 46 -21q89 0 133 30zM895 1130l-153 -154l-154 154l154 153z" />
    <glyph glyph-name="uniFC32" unicode="&#xfc32;" arabic-form="isolated" 
d="M895 1131l-153 -154l-154 154l154 153zM1119 50q0 -188 -180 -301q-171 -107 -406 -107q-430 0 -430 394q0 88 64 217t113 129q47 0 47 -54q0 -2 -31 -88t-31 -127q0 -244 303 -244q153 0 269 26q122 27 122 66q0 34 -116 56q-106 19 -252 19q22 65 65 168q215 0 243 94
q-83 -28 -132 -28q-77 0 -141 35q-69 37 -69 88q0 140 72 274q77 145 173 145q102 0 166 -126t64 -315q0 -100 -45 -182q132 -38 132 -139zM858 470q-8 55 -36 101.5t-57 46.5q-36 0 -62 -53q-24 -48 -24 -104q0 -21 46 -21q89 0 133 30zM708 -614l-108 103l109 109
l105 -105zM482 -614l-105 105l102 107l110 -109z" />
    <glyph glyph-name="uniFC3F" unicode="&#xfc3f;" arabic-form="isolated" 
d="M312 426q-62 0 -139 -5q37 74 120 216q73 21 154 21h49q136 0 136 95q0 60 -52 197q-56 147 -105 186q73 60 155 170q79 -124 136 -195l-64 -112q2 -22 24 -130q18 -88 18 -143q0 -77 -31 -127q276 -133 411 -139l-82 -198q-28 2 -88 2q-143 0 -226 -32
q-120 -45 -213 -127q-127 -111 -127 -236q0 -130 102 -212q96 -78 238 -78q233 0 448 152q11 8 36 8q16 0 16 -15q1 -50 -75 -132q-85 -92 -204 -147q-129 -59 -243 -59q-209 0 -349 140q-135 134 -135 319q0 272 464 513q-200 68 -374 68zM909 -70l-153 -154l-154 154
l154 153z" />
    <glyph glyph-name="uniFC40" unicode="&#xfc40;" arabic-form="isolated" 
d="M312 426q-62 0 -139 -5q37 74 120 216q73 21 154 21h49q136 0 136 95q0 60 -52 197q-56 147 -105 186q73 60 155 170q79 -124 136 -195l-64 -112q2 -22 24 -130q18 -88 18 -143q0 -77 -31 -127q276 -133 411 -139l-82 -198q-28 2 -88 2q-143 0 -226 -32
q-120 -45 -213 -127q-127 -111 -127 -236q0 -130 102 -212q96 -78 238 -78q233 0 448 152q11 8 36 8q16 0 16 -15q1 -50 -75 -132q-85 -92 -204 -147q-129 -59 -243 -59q-209 0 -349 140q-135 134 -135 319q0 272 464 513q-200 68 -374 68z" />
    <glyph glyph-name="uniFC41" unicode="&#xfc41;" arabic-form="isolated" 
d="M312 426q-62 0 -139 -5q37 74 120 216q73 21 154 21h49q136 0 136 95q0 60 -52 197q-56 147 -105 186q73 60 155 170q79 -124 136 -195l-64 -112q2 -22 24 -130q18 -88 18 -143q0 -77 -31 -127q276 -133 411 -139l-82 -198q-28 2 -88 2q-143 0 -226 -32
q-120 -45 -213 -127q-127 -111 -127 -236q0 -130 102 -212q96 -78 238 -78q233 0 448 152q11 8 36 8q16 0 16 -15q1 -50 -75 -132q-85 -92 -204 -147q-129 -59 -243 -59q-209 0 -349 140q-135 134 -135 319q0 272 464 513q-200 68 -374 68zM479 958l-153 -154l-154 154
l154 153z" />
    <glyph glyph-name="uniFC42" unicode="&#xfc42;" arabic-form="isolated" 
d="M853 -71q-109 62 -232 62q-186 0 -186 -115q0 -58 25.5 -151.5t25.5 -174.5q0 -46 -28 -100q-35 -64 -62 -64q-23 0 -33 18.5t-24 88.5q-15 43 -57 197q-33 138 -33 171q0 97 70.5 165.5t170.5 71.5q-8 5 -70 31q-50 21 -50 32q0 67 41.5 118t107.5 66q54 12 55 80
q1 70 -31 255l-42 246q-9 52 -68 150q65 107 147 214q71 -124 149 -211l-79 -145q41 -323 63 -431q11 -55 11 -98q0 -78 -36 -129q73 -28 164 -92q85 -60 85 -75q0 -88 -84 -180z" />
    <glyph glyph-name="uniFC43" unicode="&#xfc43;" arabic-form="isolated" 
d="M583 51q20 70 60 179q98 8 98 97q0 131 -40.5 349t-105.5 331q36 58 155 223q73 -155 138 -216l-57 -132q8 -63 20 -144q36 -232 36 -330q0 -115 -30 -175q251 -45 251 -160q0 -193 -177.5 -307.5t-409.5 -114.5q-244 0 -337.5 95t-93.5 305q0 64 57.5 204t106.5 140
q46 0 46 -51q0 -25 -29 -96q-28 -72 -28 -122q0 -236 313 -236q141 0 262.5 21.5t121.5 61.5q0 25 -115.5 48.5t-241.5 29.5z" />
    <glyph glyph-name="uniFC44" unicode="&#xfc44;" arabic-form="isolated" 
d="M583 51q20 70 60 179q98 8 98 97q0 145 -40 349q-45 226 -106 332q36 58 155 223q73 -155 139 -216l-58 -133q11 -79 20 -144q37 -234 37 -330q0 -115 -31 -175q252 -45 252 -160q0 -187 -178 -308q-169 -114 -410 -114q-239 0 -337 95q-94 91 -94 305q0 72 58 204
q61 140 106 140q46 0 46 -51q0 -12 -28.5 -96.5t-28.5 -121.5q0 -236 313 -236q152 0 263 21q122 24 122 62q0 24 -116 49q-111 23 -242 29zM648 -614l-108 103l109 109l105 -105zM422 -614l-105 105l106 106l106 -108z" />
    <glyph glyph-name="uniFC4E" unicode="&#xfc4e;" arabic-form="isolated" 
d="M1007 426q-36 81 -71 113q-42 38 -115 38q-153 0 -307 -117q174 -62 334 -220l-79 -210q-160 102 -220 102q-174 0 -174 -119q0 -38 43.5 -193.5t49.5 -242.5l-154 -188q-3 167 -50 298l-60 152q-35 97 -35 155q0 120 70.5 185t185.5 65q-54 22 -144 72q28 178 255 335
q216 151 407 151q84 0 135 -58.5t51 -148.5q0 -114 -122 -169zM1127 1132l-153 -154l-154 154l154 153z" />
    <glyph glyph-name="uniFC4F" unicode="&#xfc4f;" arabic-form="isolated" 
d="M598 45q16 71 48 174q182 42 182 75q0 48 -24 91t-119 116l108 280q98 -99 136 -186.5t38 -210.5q0 -90 -49 -171q75 -8 139 -55t64 -96q0 -195 -183 -310t-413 -115q-421 0 -421 404q0 88 67.5 231.5t114.5 143.5q34 0 34 -38q0 -29 -33 -121t-33 -142
q0 -123 76.5 -180.5t252.5 -57.5q122 0 250 23t128 63q0 33 -120 56.5t-243 25.5zM782 1095l-153 -154l-154 154l154 153z" />
    <glyph glyph-name="uniFC58" unicode="&#xfc58;" arabic-form="isolated" 
d="M1007 426q-36 81 -71 113q-42 38 -115 38q-153 0 -307 -117q174 -62 334 -220l-79 -210q-160 102 -220 102q-174 0 -174 -119q0 -38 43.5 -193.5t49.5 -242.5l-154 -188q-3 167 -50 298l-60 152q-35 97 -35 155q0 120 70.5 185t185.5 65q-54 22 -144 72q28 178 255 335
q216 151 407 151q84 0 135 -58.5t51 -148.5q0 -114 -122 -169zM1217 -245l-155 -157l-141 136l-153 -148l-154 154l156 156l139 -141l154 154z" />
    <glyph glyph-name="uniFC59" unicode="&#xfc59;" arabic-form="isolated" 
d="M1122 62q0 -188 -183 -310q-173 -115 -414 -115q-421 0 -421 404q0 90 68 232.5t114 142.5q34 0 34 -38q0 -16 -33 -121t-33 -142q0 -124 77.5 -181t251.5 -57q135 0 250 23q129 26 129 63q0 31 -121 57q-112 23 -243 25q16 71 48 174q182 42 182 75q0 53 -24 91
q-30 48 -119 116l108 280q98 -98 136.5 -185.5t38.5 -211.5q0 -90 -49 -171q75 -8 139 -55t64 -96zM1084 -507l-106 -107l-108 103l109 109zM859 -511l-107 -103l-105 105l100 104z" />
    <glyph glyph-name="uniFC5E" unicode="&#xfc5e;" arabic-form="isolated" 
d="M751 2163q57 -20 57 -41q0 -47 -6 -74q-62 0 -122 28q-122 -167 -218 -167q-35 0 -52 8v23q60 26 60 124q0 20 -13 20q-15 0 -27 -19t-27 -19q-23 0 -23 26q0 33 41 70t73 37q58 0 58 -72q0 -67 -27 -100q57 31 110 96q-61 47 -61 124q0 62 40.5 114.5t107.5 52.5
q73 0 73 -113q0 -58 -44 -118zM705 2188q16 25 16 56q0 29 -12 51.5t-25 22.5q-48 0 -48 -62q0 -34 69 -68zM618 1698q-33 -104 -111 -104q-55 0 -81.5 39t-26.5 85q1 38 16 79t39 41q31 0 31 -71q0 -38 30 -38q39 0 54 82t39 82q35 0 35 -48q0 -57 33 -57t39 74q7 91 41 91
q52 0 52 -142q0 -57 -36 -108t-91 -51q-47 0 -63 46z" />
    <glyph glyph-name="uniFC5F" unicode="&#xfc5f;" arabic-form="isolated" 
d="M618 2068q-33 -104 -111 -104q-55 0 -81.5 39t-26.5 85q0 38 15.5 79t39.5 41q31 0 31 -71q0 -38 30 -38q39 0 54 82t39 82q35 0 35 -48q0 -57 33 -57t39 74q7 91 41 91q52 0 52 -142q1 -57 -35.5 -108t-91.5 -51q-47 0 -63 46zM490 1759q-20 0 -20 44q0 43 13.5 50.5
t133.5 58t127 50.5q20 0 20 -43q0 -41 -9.5 -47.5t-132.5 -59.5t-132 -53zM490 1582q-20 0 -20 44q0 43 13.5 50.5t133.5 58t127 50.5q20 0 20 -43q0 -41 -9.5 -47.5t-132.5 -59.5t-132 -53z" />
    <glyph glyph-name="uniFC60" unicode="&#xfc60;" arabic-form="isolated" 
d="M461 1946q-20 0 -20 44q0 43 13.5 50.5t133.5 58t127 50.5q20 0 20 -43q0 -41 -9.5 -47.5t-132.5 -59.5t-132 -53zM618 1698q-33 -104 -111 -104q-55 0 -81.5 39t-26.5 85q1 38 16 79t39 41q31 0 31 -71q0 -38 30 -38q39 0 54 82t39 82q35 0 35 -48q0 -57 33 -57t39 74
q7 91 41 91q52 0 52 -142q0 -57 -36 -108t-91 -51q-47 0 -63 46z" />
    <glyph glyph-name="uniFC61" unicode="&#xfc61;" arabic-form="isolated" 
d="M627 2055q-128 -144 -204 -144q-18 0 -43 12t-25 27q0 8 16 15q123 49 200 120q-92 67 -92 115q0 49 47 111.5t108 62.5q44 0 71 -32.5t27 -82.5q0 -52 -36 -112q50 -19 50 -65v-59q-48 0 -119 32zM643 2168q15 18 15 54q0 71 -69 71q-31 0 -31 -48q0 -41 85 -77z
M618 1698q-33 -104 -111 -104q-55 0 -81.5 39t-26.5 85q1 38 16 79t39 41q31 0 31 -71q0 -38 30 -38q39 0 54 82t39 82q35 0 35 -48q0 -57 33 -57t39 74q7 91 41 91q52 0 52 -142q0 -57 -36 -108t-91 -51q-47 0 -63 46z" />
    <glyph glyph-name="uniFC62" unicode="&#xfc62;" arabic-form="isolated" 
d="M618 1902q-33 -104 -111 -104q-50 1 -79 36.5t-29 87.5q1 38 16 79t39 41q31 0 31 -71q0 -38 30 -38q39 0 54 82t39 82q35 0 35 -48q0 -57 33 -57t39 74q7 91 41 91q52 0 52 -142q0 -57 -36 -108t-91 -51q-47 0 -63 46zM489 1583q-20 0 -20 44q0 43 13.5 50.5t133.5 58
t127 50.5q20 0 20 -43q0 -41 -9.5 -47.5t-132.5 -59.5t-132 -53z" />
    <glyph glyph-name="uniFC63" unicode="&#xfc63;" arabic-form="isolated" 
d="M600 907q-33 -104 -111 -104q-55 0 -82 39q-26 40 -26 85q0 20 4 39.5t12 39.5q15 41 39 41q31 0 31 -71q0 -38 30 -38q39 0 54 82t39 82q35 0 35 -48q0 -57 33 -57t39 74q7 91 41 91q52 0 52 -142q0 -57 -36 -108t-91 -51q-47 0 -63 46zM569 1129q0 35 -3.5 65t-8.5 56
l-22 97l72 90l18 -151q2 -15 2 -27.5v-26.5q0 -17 -5.5 -33.5t-14 -30.5t-19 -24t-19.5 -15z" />
    <glyph glyph-name="uniFC6A" unicode="&#xfc6a;" arabic-form="final" 
d="M1229 0h-21q-118 0 -185 62t-95 221q-38 -41 -99 -41q0 -251 -119.5 -461.5t-306.5 -210.5q-75 0 -239 58t-164 89q0 36 11 50t62 14q38 0 88 -6q49 -6 87 -6q120 0 268.5 130.5t148.5 241.5q0 189 -182 381l102 273q164 -153 218 -364q173 18 184 194q3 55 24.5 97.5
t43.5 42.5q40 0 40 -134q0 -154 11 -249t35 -125t69 -32h19v-225zM1099 -438l-153 -154l-154 154l154 153z" />
    <glyph glyph-name="uniFC6D" unicode="&#xfc6d;" arabic-form="final" 
d="M1229 0h-77q-99 0 -155 64t-69 269q-10 -32 -52 -67t-75 -46q0 -607 -447 -607q-157 0 -255.5 109.5t-98.5 271.5q0 169 61 358.5t143 189.5q53 0 53 -60q0 -37 -40 -145q-42 -116 -42 -258q0 -88 57 -155.5t139 -67.5q136 0 211 52t75 145q0 135 -83 317l127 280
q68 -135 100 -238q47 0 80.5 30.5t60.5 147.5q29 129 83 129q48 0 48 -119q0 -38 -5 -111q-5 -74 -5 -105q0 -159 166 -159v-225zM599 919l-153 -154l-154 154l154 153zM1180 -441l-153 -154l-154 154l154 153z" />
    <glyph glyph-name="uniFC6E" unicode="&#xfc6e;" arabic-form="final" 
d="M1229 0h-81q-60 0 -101 19.5t-90 100.5q-67 113 -120 113q-65 0 -148 -44.5t-83 -89.5q0 -15 121 -31q128 -17 192.5 -60.5t64.5 -148.5q0 -64 -66.5 -194.5t-190.5 -184.5t-289 -54q-435 0 -435 334q0 70 63.5 235t114.5 165q25 0 34.5 -7t9.5 -39t-33 -124
q-34 -91 -34 -139q0 -97 69.5 -143t235.5 -46q155 0 273 30.5t117 88.5q0 17 -12 29.5t-27.5 16.5t-88.5 14q-119 17 -177 49.5t-58 102.5q0 158 116.5 298.5t270.5 140.5q53 0 112 -96q47 -74 71 -93t90 -19h79v-224zM1227 -461l-153 -154l-154 154l154 153z" />
    <glyph glyph-name="uniFC6F" unicode="&#xfc6f;" arabic-form="final" 
d="M1151 -312l-106 -107l-108 103l109 109zM1229 0h-81q-67 0 -102 19q-44 25 -89 101q-43 72 -66 94q-37 38 -91 38q-70 0 -130.5 -35t-60.5 -78q0 -40 141 -71q205 -44 205 -158q0 -100 -130 -184q-102 -66 -354 -66q-234 0 -359 74q-106 63 -106 134q-3 57 42 142
q57 150 96 150q40 0 40 -39q-33 -129 -33 -164q0 -52 39 -72q86 -47 271 -47q373 6 381 55q-1 15 -59.5 29t-115.5 25q-171 45 -171 159q0 89 103 201q115 124 243 124q88 0 147 -95q47 -76 71.5 -94t89.5 -18h79v-224zM693 -497l-106 -107l-108 103l109 109zM468 -501
l-107 -103l-105 105l106 106z" />
    <glyph glyph-name="uniFC70" unicode="&#xfc70;" arabic-form="final" 
d="M1229 0h-21q-118 0 -185 62t-95 221q-38 -41 -99 -41q0 -251 -119.5 -461.5t-306.5 -210.5q-75 0 -239 58t-164 89q0 36 11 50t62 14q38 0 88 -6q49 -6 87 -6q120 0 268.5 130.5t148.5 241.5q0 189 -182 381l102 273q164 -153 218 -364q173 18 184 194q3 55 24.5 97.5
t43.5 42.5q40 0 40 -134q0 -154 11 -249t35 -125t69 -32h19v-225zM1196 1079l-155 -157l-141 136l-153 -148l-154 154l156 156l139 -141l154 154z" />
    <glyph glyph-name="uniFC73" unicode="&#xfc73;" arabic-form="final" 
d="M1229 0h-77q-99 0 -155 64t-69 269q-10 -32 -52 -67t-75 -46q0 -607 -447 -607q-157 0 -255.5 109.5t-98.5 271.5q0 169 61 358.5t143 189.5q53 0 53 -60q0 -37 -40 -145q-42 -116 -42 -258q0 -88 57 -155.5t139 -67.5q136 0 211 52t75 145q0 135 -83 317l127 280
q68 -135 100 -238q47 0 80.5 30.5t60.5 147.5q29 129 83 129q48 0 48 -119q0 -38 -5 -111q-5 -74 -5 -105q0 -159 166 -159v-225zM566 901l-153 -154l-154 154l154 153zM1225 1116l-155 -157l-141 136l-153 -148l-154 154l156 156l139 -141l154 154z" />
    <glyph glyph-name="uniFC74" unicode="&#xfc74;" arabic-form="final" 
d="M1229 0h-81q-60 0 -101 19.5t-90 100.5q-67 113 -120 113q-65 0 -148 -44.5t-83 -89.5q0 -15 121 -31q128 -17 192.5 -60.5t64.5 -148.5q0 -64 -66.5 -194.5t-190.5 -184.5t-289 -54q-435 0 -435 334q0 70 63.5 235t114.5 165q25 0 34.5 -7t9.5 -39t-33 -124
q-34 -91 -34 -139q0 -97 69.5 -143t235.5 -46q155 0 273 30.5t117 88.5q0 17 -12 29.5t-27.5 16.5t-88.5 14q-119 17 -177 49.5t-58 102.5q0 158 116.5 298.5t270.5 140.5q53 0 112 -96q47 -74 71 -93t90 -19h79v-224zM1161 767l-155 -157l-141 136l-153 -148l-154 154
l156 156l139 -141l154 154z" />
    <glyph glyph-name="uniFC75" unicode="&#xfc75;" arabic-form="final" 
d="M1201 768l-156 -158l-141 137l-153 -149l-154 155l156 156l139 -141l154 154zM1269 0h-81q-67 0 -102 19q-44 25 -89 101q-43 72 -66 94q-37 38 -91 38q-70 0 -130.5 -35t-60.5 -78q0 -40 141 -71q205 -44 205 -158q0 -100 -130 -184q-102 -66 -354 -66q-237 1 -362 75
q-106 63 -106 134q0 63 42 142q57 150 96 150q40 0 40 -39q-33 -129 -33 -164q0 -52 39 -72q86 -47 274 -48q380 3 381 55q2 12 -58 27.5t-117 26.5q-171 45 -171 159q0 89 103 201q115 124 243 124q88 0 147 -95q47 -76 71.5 -94t89.5 -18h79v-224zM733 -497l-106 -107
l-108 103l109 109zM508 -501l-107 -103l-105 105l106 106z" />
    <glyph glyph-name="uniFC8E" unicode="&#xfc8e;" arabic-form="final" 
d="M1229 0h-81q-60 0 -101 19.5t-90 100.5q-67 113 -120 113q-65 0 -148 -44.5t-83 -89.5q0 -15 121 -31q128 -17 192.5 -60.5t64.5 -148.5q0 -64 -66.5 -194.5t-190.5 -184.5t-289 -54q-435 0 -435 334q0 70 63.5 235t114.5 165q25 0 34.5 -7t9.5 -39t-33 -124
q-34 -91 -34 -139q0 -97 69.5 -143t235.5 -46q155 0 273 30.5t117 88.5q0 17 -12 29.5t-27.5 16.5t-88.5 14q-119 17 -177 49.5t-58 102.5q0 158 116.5 298.5t270.5 140.5q53 0 112 -96q47 -74 71 -93t90 -19h79v-224zM1037 787l-153 -154l-154 154l154 153z" />
    <glyph glyph-name="uniFC8F" unicode="&#xfc8f;" arabic-form="final" 
d="M1079 788l-153 -154l-154 154l154 153zM1269 0h-78q-67 0 -102 19q-44 25 -89 101q-43 72 -66 94q-37 38 -91 38q-70 0 -130.5 -35t-60.5 -78q0 -40 141 -71q205 -44 205 -158q0 -100 -130 -184q-102 -66 -354 -66q-237 4 -362 78q-106 63 -106 134q-3 60 42 142
q57 150 96 150q40 0 40 -39q-33 -129 -39 -169q6 -47 45 -67q86 -47 274 -51q380 9 381 55q2 12 -58 27.5t-117 26.5q-171 45 -171 159q0 89 103 201q115 124 243 124q88 0 147 -95q47 -76 71.5 -94t89.5 -18h76v-224zM736 -497l-106 -107l-108 103l109 109zM511 -501
l-107 -103l-105 105l106 106z" />
    <glyph glyph-name="uniFC91" unicode="&#xfc91;" arabic-form="final" 
d="M1230 0h-21q-121 0 -185 62q-68 66 -95 221q-38 -41 -100 -41q0 -261 -119 -462q-126 -210 -307 -210q-77 0 -240 58.5t-163 88.5q0 39 12.5 51.5t60.5 12.5q25 0 87 -6t88 -6q121 0 269 131t148 241q0 189 -182 381l102 273q164 -153 218 -364q174 18 185 194
q3 55 24 97.5t44 42.5q40 0 40 -134q0 -316 46 -374q25 -32 69 -32h19v-225zM1134 -497l-106 -107l-108 103l109 109zM918 -501l-107 -103l-105 105l106 106z" />
    <glyph glyph-name="uniFC94" unicode="&#xfc94;" arabic-form="final" 
d="M1230 0h-77q-107 0 -155 64q-57 75 -69 269q-10 -30 -51.5 -65.5t-76.5 -47.5q0 -607 -447 -607q-155 0 -254.5 108.5t-99.5 272.5q0 181 61 359q65 189 143 189q53 0 53 -60q0 -35 -40 -145q-42 -115 -42 -258q0 -89 57.5 -156t138.5 -67q136 0 211 52t75 145
q0 135 -83 317l127 280q68 -135 100 -238q53 0 81 31q36 38 61 147q29 129 83 129q48 0 48 -119q0 -26 -5 -111t-5 -105q0 -159 166 -159v-225zM599 920l-153 -154l-154 154l154 153zM1134 -497l-106 -107l-108 103l109 109zM909 -501l-107 -103l-105 105l106 106z" />
    <glyph glyph-name="uniFC9C" unicode="&#xfc9c;" arabic-form="initial" 
d="M1212 499l-85 -223h-115q-149 0 -205 -14q-75 -19 -202 -100q-164 -105 -268 -137q-80 -25 -204 -25h-133v225h294q65 0 238 89q133 68 177 76q-87 51 -186.5 70t-280.5 19l100 214q101 2 183 56q78 51 213 201q110 121 175 121q77 0 134 -98q53 -92 53 -202
q0 -133 -60 -133q-38 0 -53 95q-19 113 -77 113q-51 0 -146 -95q-116 -117 -126 -123q92 -51 263.5 -89.5t310.5 -39.5zM960 -245l-106 -108l-108 104l109 109zM479 -501l-107 -103l-105 105l106 106z" />
    <glyph glyph-name="uniFC9D" unicode="&#xfc9d;" arabic-form="initial" 
d="M1211 499l-85 -223h-115q-137 0 -204.5 -14t-201.5 -100q-176 -113 -268.5 -137.5t-203.5 -24.5h-133v225h294q65 0 238 89q133 68 177 76q-87 51 -186.5 70t-280.5 19l100 214q102 2 182.5 55.5t213.5 200.5q110 121 174 121q81 0 134 -98t53 -201q0 -133 -60 -133
q-37 0 -53 95q-18 113 -77 113q-51 0 -145 -95q-118 -118 -126 -123q92 -51 263.5 -89.5t309.5 -39.5zM906 -258l-153 -154l-154 154l154 153z" />
    <glyph glyph-name="uniFC9E" unicode="&#xfc9e;" arabic-form="initial" 
d="M1211 499l-85 -223h-115q-137 0 -204.5 -14t-201.5 -100q-176 -113 -268.5 -137.5t-203.5 -24.5h-133v225h294q65 0 238 89q133 68 177 76q-87 51 -186.5 70t-280.5 19l100 214q102 2 182.5 55.5t213.5 200.5q110 121 174 121q81 0 134 -98t53 -201q0 -133 -60 -133
q-37 0 -53 95q-18 113 -77 113q-51 0 -145 -95q-118 -118 -126 -123q92 -51 263.5 -89.5t309.5 -39.5zM510 1043l-153 -154l-154 154l154 153zM906 -258l-153 -154l-154 154l154 153z" />
    <glyph glyph-name="uniFC9F" unicode="&#xfc9f;" arabic-form="initial" 
d="M1064 624q-79 90 -148 90q-85 0 -152.5 -51t-67.5 -161q0 -62 67 -116t258 -121l-82 -236q-191 111 -242 111q-48 0 -192 -56q-217 -84 -340 -84h-165v225q475 0 592 56q-51 117 -51 200q0 158 132 312.5t288 154.5q69 0 125.5 -38.5t56.5 -97.5q0 -45 -23.5 -102
t-55.5 -86zM1135 -343l-153 -154l-154 154l154 153z" />
    <glyph glyph-name="uniFCA0" unicode="&#xfca0;" arabic-form="initial" 
d="M694 -8q46 -62 46 -96q0 -117 -72.5 -218.5t-160.5 -101.5q-97 0 -151.5 93t-54.5 209q0 21 3 33l-122 -35q0 75 31 165q-76 -41 -166 -41h-47v225h124q156 0 196 15q109 210 233.5 360t187.5 150q60 0 83 -36t23 -129q0 -177 -31 -254t-76 -117q31 11 66 11h44
q119 0 150.5 7.5t31.5 38.5q0 183 -92 284l117 289q93 -139 124 -238t31 -231q0 -108 -78 -242.5t-185 -134.5q-200 0 -255 -6zM492 252q97 16 188.5 108t91.5 143q0 58 -40 58q-44 0 -94.5 -56.5t-145.5 -252.5zM445 11q-9 -52 -9 -93q0 -146 112 -146q33 0 57.5 17.5
t24.5 44.5q0 42 -72 109.5t-113 67.5zM1179 -359l-153 -154l-154 154l154 153z" />
    <glyph glyph-name="uniFCA1" unicode="&#xfca1;" arabic-form="initial" 
d="M1211 499l-85 -223h-115q-137 0 -204.5 -14t-201.5 -100q-176 -113 -268.5 -137.5t-203.5 -24.5h-133v225h294q65 0 238 89q133 68 177 76q-87 51 -186.5 70t-280.5 19l100 214q102 2 182.5 55.5t213.5 200.5q110 121 174 121q81 0 134 -98t53 -201q0 -133 -60 -133
q-37 0 -53 95q-18 113 -77 113q-51 0 -145 -95q-118 -118 -126 -123q92 -51 263.5 -89.5t309.5 -39.5zM1230 1364l-155 -157l-141 136l-153 -148l-154 154l156 156l139 -141l154 154zM906 -258l-153 -154l-154 154l154 153z" />
    <glyph glyph-name="uniFCA2" unicode="&#xfca2;" arabic-form="initial" 
d="M1211 499l-85 -223h-115q-137 0 -204.5 -14t-201.5 -100q-176 -113 -268.5 -137.5t-203.5 -24.5h-133v225h294q65 0 238 89q133 68 177 76q-87 51 -186.5 70t-280.5 19l100 214q102 2 182.5 55.5t213.5 200.5q110 121 174 121q81 0 134 -98t53 -201q0 -133 -60 -133
q-37 0 -53 95q-18 113 -77 113q-51 0 -145 -95q-118 -118 -126 -123q92 -51 263.5 -89.5t309.5 -39.5zM1230 1364l-155 -157l-141 136l-153 -148l-154 154l156 156l139 -141l154 154z" />
    <glyph glyph-name="uniFCA3" unicode="&#xfca3;" arabic-form="initial" 
d="M1211 499l-85 -223h-115q-137 0 -204.5 -14t-201.5 -100q-176 -113 -268.5 -137.5t-203.5 -24.5h-133v225h294q65 0 238 89q133 68 177 76q-87 51 -186.5 70t-280.5 19l100 214q102 2 182.5 55.5t213.5 200.5q110 121 174 121q81 0 134 -98t53 -201q0 -133 -60 -133
q-37 0 -53 95q-18 113 -77 113q-51 0 -145 -95q-118 -118 -126 -123q92 -51 263.5 -89.5t309.5 -39.5zM492 1083l-153 -154l-154 154l154 153zM1230 1364l-155 -157l-141 136l-153 -148l-154 154l156 156l139 -141l154 154z" />
    <glyph glyph-name="uniFCA4" unicode="&#xfca4;" arabic-form="initial" 
d="M1064 624q-79 90 -148 90q-85 0 -152.5 -51t-67.5 -161q0 -62 67 -116t258 -121l-82 -236q-191 111 -242 111q-48 0 -192 -56q-217 -84 -340 -84h-165v225q475 0 592 56q-51 117 -51 200q0 158 132 312.5t288 154.5q69 0 125.5 -38.5t56.5 -97.5q0 -45 -23.5 -102
t-55.5 -86zM1173 1246l-155 -157l-141 136l-153 -148l-154 154l156 156l139 -141l154 154z" />
    <glyph glyph-name="uniFCA5" unicode="&#xfca5;" arabic-form="initial" 
d="M694 -8q46 -62 46 -96q0 -117 -72.5 -218.5t-160.5 -101.5q-97 0 -151.5 93t-54.5 209q0 21 3 33l-122 -35q0 75 31 165q-76 -41 -166 -41h-47v225h124q156 0 196 15q109 210 233.5 360t187.5 150q60 0 83 -36t23 -129q0 -177 -31 -254t-76 -117q31 11 66 11h44
q119 0 150.5 7.5t31.5 38.5q0 183 -92 284l117 289q93 -139 124 -238t31 -231q0 -108 -78 -242.5t-185 -134.5q-200 0 -255 -6zM492 252q97 16 188.5 108t91.5 143q0 58 -40 58q-44 0 -94.5 -56.5t-145.5 -252.5zM445 11q-9 -52 -9 -93q0 -146 112 -146q33 0 57.5 17.5
t24.5 44.5q0 42 -72 109.5t-113 67.5zM1207 1123l-155 -157l-141 136l-153 -148l-154 154l156 156l139 -141l154 154z" />
    <glyph glyph-name="uniFCA6" unicode="&#xfca6;" arabic-form="initial" 
d="M1064 624q-79 90 -148 90q-85 0 -152.5 -51t-67.5 -161q0 -62 67 -116t258 -121l-82 -236q-191 111 -242 111q-48 0 -192 -56q-217 -84 -340 -84h-165v225q475 0 592 56q-51 117 -51 200q0 158 132 312.5t288 154.5q69 0 125.5 -38.5t56.5 -97.5q0 -45 -23.5 -102
t-55.5 -86zM1032 1524l-156 -154l-153 154l153 153zM1172 1247l-154 -157l-141 141l-154 -154l-153 154l156 156l138 -140l154 153z" />
    <glyph glyph-name="uniFCA8" unicode="&#xfca8;" arabic-form="initial" 
d="M1229 844l-79 -220q-44 3 -116 3q-299 0 -425 -64q76 -71 76 -178q0 -109 -27 -194.5t-118.5 -132.5t-141.5 -61q-91 81 -165 129q-95 -126 -200 -126h-33v225q155 0 179 31q75 256 150.5 337.5t195.5 124.5t321 62q-150 79 -245 79q-47 0 -91 -27t-71 -27q-25 0 -25 42
q0 83 79.5 142t176.5 59q45 0 122.5 -30t287.5 -153q50 -21 149 -21zM325 294q68 -27 164 -115q36 57 36 148q0 102 -80 102q-62 0 -120 -135zM1093 310l-153 -154l-154 154l154 153z" />
    <glyph glyph-name="uniFCAA" unicode="&#xfcaa;" arabic-form="initial" 
d="M1229 844l-79 -220q-44 3 -116 3q-299 0 -425 -64q76 -71 76 -178q0 -109 -27 -194.5t-118.5 -132.5t-141.5 -61q-91 81 -165 129q-95 -126 -200 -126h-33v225q155 0 179 31q75 256 150.5 337.5t195.5 124.5t321 62q-150 79 -245 79q-47 0 -91 -27t-71 -27q-25 0 -25 42
q0 83 79.5 142t176.5 59q45 0 122.5 -30t287.5 -153q50 -21 149 -21zM325 294q68 -27 164 -115q36 57 36 148q0 102 -80 102q-62 0 -120 -135z" />
    <glyph glyph-name="uniFCAC" unicode="&#xfcac;" arabic-form="initial" 
d="M1229 844l-79 -220q-44 3 -116 3q-299 0 -425 -64q76 -71 76 -178q0 -109 -27 -194.5t-118.5 -132.5t-141.5 -61q-91 81 -165 129q-95 -126 -200 -126h-33v225q155 0 179 31q75 256 150.5 337.5t195.5 124.5t321 62q-150 79 -245 79q-47 0 -91 -27t-71 -27q-25 0 -25 42
q0 83 79.5 142t176.5 59q45 0 122.5 -30t287.5 -153q50 -21 149 -21zM325 294q68 -27 164 -115q36 57 36 148q0 102 -80 102q-62 0 -120 -135zM1128 1300l-153 -154l-154 154l154 153z" />
    <glyph glyph-name="uniFCB0" unicode="&#xfcb0;" arabic-form="initial" 
d="M882 460q-79 -107 -218 -107q-51 0 -93.5 36t-109.5 142q-39 62 -60 62q-37 0 -61.5 -37t-25.5 -85q0 -27 30 -61.5t230 -154.5q37 -31 37 -109q0 -94 -76 -155q-86 80 -221 139q-47 -7 -129 -62q-101 -68 -185 -68v225h49q111 0 164 27q-36 72 -36 174q0 126 81 244
t191 118q59 0 144 -112q85 -111 97 -111q93 0 120 250q17 157 74 157q50 0 50 -85q0 -22 -5 -86q-5 -63 -5 -92q0 -81 81 -81q79 0 79 61q0 109 -95 300l144 201q91 -145 91 -392q0 -355 -260 -355q-51 0 -82 17z" />
    <glyph glyph-name="uniFCC9" unicode="&#xfcc9;" arabic-form="initial" 
d="M1229 460l-68 -212q-108 9 -202 9q-133 0 -326 -115q-140 -83 -216.5 -112.5t-194.5 -29.5h-222v225h330q76 0 235 79q83 43 199 93q-86 34 -336 34q-81 0 -167 -4q57 124 112 208q43 6 113 6q129 0 159.5 20t30.5 51q0 73 -44.5 215t-85.5 201q27 25 79 93q46 60 86 92
q68 -112 139 -197l-70 -119q4 -38 25 -157q16 -88 16 -152q0 -34 -30 -94q274 -122 438 -134zM1001 -337l-153 -154l-154 154l154 153z" />
    <glyph glyph-name="uniFCCA" unicode="&#xfcca;" arabic-form="initial" 
d="M1229 460l-68 -212q-108 9 -202 9q-133 0 -326 -115q-140 -83 -216.5 -112.5t-194.5 -29.5h-222v225h330q76 0 235 79q83 43 199 93q-86 34 -336 34q-81 0 -167 -4q57 124 112 208q43 6 113 6q129 0 159.5 20t30.5 51q0 73 -44.5 215t-85.5 201q27 25 79 93q46 60 86 92
q68 -112 139 -197l-70 -119q4 -38 25 -157q16 -88 16 -152q0 -34 -30 -94q274 -122 438 -134z" />
    <glyph glyph-name="uniFCCB" unicode="&#xfccb;" arabic-form="initial" 
d="M1229 460l-68 -212q-108 9 -202 9q-133 0 -326 -115q-140 -83 -216.5 -112.5t-194.5 -29.5h-222v225h330q76 0 235 79q83 43 199 93q-86 34 -336 34q-81 0 -167 -4q57 124 112 208q43 6 113 6q129 0 159.5 20t30.5 51q0 73 -44.5 215t-85.5 201q27 25 79 93q46 60 86 92
q68 -112 139 -197l-70 -119q4 -38 25 -157q16 -88 16 -152q0 -34 -30 -94q274 -122 438 -134zM483 919l-153 -154l-154 154l154 153z" />
    <glyph glyph-name="uniFCCC" unicode="&#xfccc;" arabic-form="initial" 
d="M1090 -113q-109 172 -281 172q-80 0 -234 -43q-59 -16 -102 -16h-473v225h442q222 0 340 80q0 124 -63 410t-111 375q53 92 146 213q83 -136 149 -209l-67 -121l12 -113q21 -212 41 -341.5t37 -170.5t65 -62q86 -38 160 -100.5t74 -101.5q0 -41 -39.5 -102.5t-95.5 -94.5
z" />
    <glyph glyph-name="uniFCCD" unicode="&#xfccd;" arabic-form="initial" 
d="M1200 1102l-90 -149q60 -458 60 -723q0 -110 -52.5 -170t-215.5 -60q-135 0 -208 -8q46 -62 46 -96q0 -117 -72.5 -218.5t-160.5 -101.5q-97 0 -151.5 93t-54.5 209q0 21 3 33l-122 -35q0 75 31 165q-76 -41 -166 -41h-47v225h124q156 0 196 15q109 210 233.5 360
t187.5 150q60 0 83 -36t23 -129q0 -177 -31 -254t-76 -117q31 11 66 11h174q67 0 67 68q0 222 -39.5 467t-103.5 337q73 118 154 223q72 -152 142 -218zM492 252q97 16 188.5 108t91.5 143q0 58 -40 58q-44 0 -94.5 -56.5t-145.5 -252.5zM445 11q-9 -52 -9 -93
q0 -146 112 -146q33 0 57.5 17.5t24.5 44.5q0 42 -72 109.5t-113 67.5z" />
    <glyph glyph-name="uniFCCE" unicode="&#xfcce;" arabic-form="initial" 
d="M1182 359l-68 -173q-142 0 -201.5 -6.5t-116.5 -23.5t-296 -111q-103 -40 -500 -45v225h353q227 0 412 56q-308 123 -449 123l88 161q70 63 314 150q-122 52 -122 103q0 52 49.5 110.5t99.5 58.5q87 0 249 -80.5t162 -147.5q0 -38 -43.5 -102t-61.5 -64h-89
q-283 0 -383 -50q434 -161 603 -184zM936 -256l-153 -154l-154 154l154 153z" />
    <glyph glyph-name="uniFCCF" unicode="&#xfccf;" arabic-form="initial" 
d="M1182 359l-68 -173q-142 0 -201.5 -6.5t-116.5 -23.5t-296 -111q-103 -40 -500 -45v225h353q227 0 412 56q-308 123 -449 123l88 161q70 63 314 150q-122 52 -122 103q0 52 49.5 110.5t99.5 58.5q87 0 249 -80.5t162 -147.5q0 -38 -43.5 -102t-61.5 -64h-89
q-283 0 -383 -50q434 -161 603 -184z" />
    <glyph glyph-name="uniFCD0" unicode="&#xfcd0;" arabic-form="initial" 
d="M1182 359l-68 -173q-142 0 -201.5 -6.5t-116.5 -23.5t-296 -111q-103 -40 -500 -45v225h353q227 0 412 56q-308 123 -449 123l88 161q70 63 314 150q-122 52 -122 103q0 52 49.5 110.5t99.5 58.5q87 0 249 -80.5t162 -147.5q0 -38 -43.5 -102t-61.5 -64h-89
q-283 0 -383 -50q434 -161 603 -184zM517 957l-153 -154l-154 154l154 153z" />
    <glyph glyph-name="uniFCD1" unicode="&#xfcd1;" arabic-form="initial" 
d="M1074 590q-71 4 -142 4q-358 0 -358 -109q0 -73 126 -150q101 -62 126 -103t25 -86q0 -87 -86 -161q-45 40 -123 96t-94 56q-34 0 -93 -32q-199 -105 -345 -105h-110v225h218q153 0 229 41q-23 58 -23 108q0 112 78.5 207t206.5 145q-37 12 -75.5 38t-38.5 43
q0 46 58 114.5t102 68.5q79 0 238 -77.5t159 -139.5q0 -36 -26 -94t-52 -89z" />
    <glyph glyph-name="uniFCD2" unicode="&#xfcd2;" arabic-form="initial" 
d="M1211 499l-85 -223h-115q-137 0 -204.5 -14t-201.5 -100q-176 -113 -268.5 -137.5t-203.5 -24.5h-133v225h294q65 0 238 89q133 68 177 76q-87 51 -186.5 70t-280.5 19l100 214q102 2 182.5 55.5t213.5 200.5q110 121 174 121q81 0 134 -98t53 -201q0 -133 -60 -133
q-37 0 -53 95q-18 113 -77 113q-51 0 -145 -95q-118 -118 -126 -123q92 -51 263.5 -89.5t309.5 -39.5zM1085 1368l-153 -154l-154 154l154 153zM906 -258l-153 -154l-154 154l154 153z" />
    <glyph glyph-name="uniFCD3" unicode="&#xfcd3;" arabic-form="initial" 
d="M1211 499l-85 -223h-115q-137 0 -204.5 -14t-201.5 -100q-176 -113 -268.5 -137.5t-203.5 -24.5h-133v225h294q65 0 238 89q133 68 177 76q-87 51 -186.5 70t-280.5 19l100 214q102 2 182.5 55.5t213.5 200.5q110 121 174 121q81 0 134 -98t53 -201q0 -133 -60 -133
q-37 0 -53 95q-18 113 -77 113q-51 0 -145 -95q-118 -118 -126 -123q92 -51 263.5 -89.5t309.5 -39.5zM1085 1368l-153 -154l-154 154l154 153z" />
    <glyph glyph-name="uniFCD4" unicode="&#xfcd4;" arabic-form="initial" 
d="M1211 499l-85 -223h-115q-137 0 -204.5 -14t-201.5 -100q-176 -113 -268.5 -137.5t-203.5 -24.5h-133v225h294q65 0 238 89q133 68 177 76q-87 51 -186.5 70t-280.5 19l100 214q102 2 182.5 55.5t213.5 200.5q110 121 174 121q81 0 134 -98t53 -201q0 -133 -60 -133
q-37 0 -53 95q-18 113 -77 113q-51 0 -145 -95q-118 -118 -126 -123q92 -51 263.5 -89.5t309.5 -39.5zM1085 1368l-153 -154l-154 154l154 153zM527 1072l-153 -154l-154 154l154 153z" />
    <glyph glyph-name="uniFCD5" unicode="&#xfcd5;" arabic-form="initial" 
d="M1064 624q-79 90 -148 90q-85 0 -152.5 -51t-67.5 -161q0 -62 67 -116t258 -121l-82 -236q-191 111 -242 111q-48 0 -192 -56q-217 -84 -340 -84h-165v225q475 0 592 56q-51 117 -51 200q0 158 132 312.5t288 154.5q69 0 125.5 -38.5t56.5 -97.5q0 -45 -23.5 -102
t-55.5 -86zM1180 1239l-153 -154l-154 154l154 153z" />
    <glyph glyph-name="uniFCD6" unicode="&#xfcd6;" arabic-form="initial" 
d="M694 -8q46 -62 46 -96q0 -117 -72.5 -218.5t-160.5 -101.5q-97 0 -151.5 93t-54.5 209q0 21 3 33l-122 -35q0 75 31 165q-76 -41 -166 -41h-47v225h124q156 0 196 15q109 210 233.5 360t187.5 150q60 0 83 -36t23 -129q0 -177 -31 -254t-76 -117q31 11 66 11h44
q119 0 150.5 7.5t31.5 38.5q0 183 -92 284l117 289q93 -139 124 -238t31 -231q0 -108 -78 -242.5t-185 -134.5q-200 0 -255 -6zM492 252q97 16 188.5 108t91.5 143q0 58 -40 58q-44 0 -94.5 -56.5t-145.5 -252.5zM445 11q-9 -52 -9 -93q0 -146 112 -146q33 0 57.5 17.5
t24.5 44.5q0 42 -72 109.5t-113 67.5zM1163 1167l-153 -154l-154 154l154 153z" />
    <glyph glyph-name="uniFCD8" unicode="&#xfcd8;" arabic-form="initial" 
d="M1091 499q-155 89 -237 121q-164 -16 -245 -57q76 -71 76 -178q0 -109 -27 -194.5t-118.5 -132.5t-141.5 -61q-91 81 -165 129q-95 -126 -200 -126h-33v225q157 0 179 31q32 109 68.5 190t76 134t72 73.5t116.5 45.5t145 31q-34 17 -34 64q0 54 43 137.5t90 139.5
q-57 24 -99 24q12 46 35.5 103t55.5 71t84 14q161 1 279 -160.5t118 -329.5q0 -105 -138 -294zM925 998q0 28 -5 36.5t-31 8.5q-30 0 -87 -72t-57 -99q0 -38 39 -48l35 -10q106 115 106 184zM1003 982q0 -117 -63 -212q83 -24 151 -58q8 22 8 69q0 114 -96 201zM325 294
q68 -27 164 -115q36 57 36 148q0 102 -80 102q-62 0 -120 -135z" />
    </font>
</defs>
</svg>
